Видеоуроки по Autodesk 3ds Max 2014 (2014)

Ответить на тему
 
Автор Сообщение

Yulya ®

-Видеоуроки по Autodesk 3ds Max 2014 (2014)- Автор (режиссер):
Название: Видео уроки по Autodesk 3ds Max 2014
Год выпуска: 2014
Жанр: Трёхмерная графика, анимация
Продолжительность: 12:28:50
Качество видео: PCRec
Видеокодек: AVC
Битрейт видео: ~778 kb/s, 15,000 FPS
Размер кадра: 1280x720
Аудиокодек: AAC
Битрейт аудио: 192 kb/s (CBR), 2 Ch, 44100 Hz
Описание:
Запись уроков по Autodesk 3ds Max. Уроки преподавались в одной из специализированных академий в формате: Преподаватель - Ученик. Индивидуальные занятия. В уроках били пройдены все азы обучения в работе с программой с самого начала до создания первого проекта.

MediaInfo:

Общее
Полное имя : D:\Загрузки\Autodesk 3ds Max 2014 уроки (2013)\Autodesk 3ds Max 2014.Запись обучения. Урок 1.mp4
Формат : MPEG-4
Профиль формата : Base Media / Version 2
Идентификатор кодека : mp42
Размер файла : 322 Мбайт
Продолжительность : 46 м.
Режим общего битрейта : Переменный
Общий поток : 972 Кбит/сек
Дата кодирования : UTC 2013-12-08 20:04:46
Дата пометки : UTC 2013-12-08 20:04:46
gsst : 0
gstd : 2773623
gssd : B4A7DDAC3HH1386905988126768
gshh : r3---sn-4g57kuek.googlevideo.com
Видео
Идентификатор : 1
Формат : AVC
Формат/Информация : Advanced Video Codec
Профиль формата : [url=mailto:High@L3.1]High@L3.1[/url]
Параметр CABAC формата : Да
Параметр ReFrames формата : 1 кадр
Идентификатор кодека : avc1
Идентификатор кодека/Информация : Advanced Video Coding
Продолжительность : 46 м.
Битрейт : 778 Кбит/сек
Максимальный битрейт : 5094 Кбит/сек
Ширина : 1280 пикселей
Высота : 720 пикселей
Соотношение сторон : 16:9
Режим частоты кадров : Постоянный
Частота кадров : 15,000 кадров/сек
Цветовое пространство : YUV
Субдискретизация насыщенности : 4:2:0
Битовая глубина : 8 бит
Тип развёртки : Прогрессивная
Бит/(Пиксели*Кадры) : 0.056
Размер потока : 257 Мбайт (80%)
Дата пометки : UTC 2013-12-08 20:05:36
Аудио
Идентификатор : 2
Формат : AAC
Формат/Информация : Advanced Audio Codec
Профиль формата : LC
Идентификатор кодека : 40
Продолжительность : 46 м.
Вид битрейта : Переменный
Битрейт : 192 Кбит/сек
Максимальный битрейт : 201 Кбит/сек
Каналы : 2 канала
Расположение каналов : Front: L R
Частота : 44,1 КГц
Метод сжатия : С потерями
Размер потока : 63,5 Мбайт (20%)
Заголовок : IsoMedia File Produced by Google, 5-11-2011
Дата кодирования : UTC 2013-12-08 20:05:14
Дата пометки : UTC 2013-12-08 20:05:36
Скриншоты:
Скачать .torrent

Для того, чтобы скачать торрент-файл

Видеоуроки по Autodesk 3ds Max 2014 (2014)

с нашего сайта, Вам необходимо Войти на сайт под своим логином! Если у Вас ещё нет логина, тогда Вам нужно сначала Зарегистрироваться!

Как скачивать? · Что такое торрент? · Рейтинг и ограничения

Показать сообщения:    
Ответить на тему

Видеоуроки по Autodesk 3ds Max 2014 (2014) скачать торрент (torrent), видеоуроки, тренинги, обучающее видео и видеокурсы

Текущее время: Сегодня 02:55

Часовой пояс: GMT + 4



Вы не можете начинать темы
Вы не можете отвечать на сообщения
Вы не можете редактировать свои сообщения
Вы не можете удалять свои сообщения
Вы не можете голосовать в опросах
Вы не можете прикреплять файлы к сообщениям
Вы не можете скачивать файлы