ITVDN - ASP.NET MVC 4 Урок 1. Введение. Оптимизация веб приложений (2014)

Ответить на тему
 
Автор Сообщение

Yulya ®

-ITVDN - ASP.NET MVC 4 Урок 1. Введение. Оптимизация веб приложений (2014)- Автор (режиссер): ITVDN
Жанр: Видео урок
Продолжительность: 02:10:48
Производитель: ITVDN
Качество видео: DVDRip
Видеокодек: AVC1/H.264
Битрейт видео: ~50 Kbps
Размер кадра: 960*720
Аудиокодек: AAC
Битрейт аудио: 44,100 Hz, 2 Ch, 16 bits, 1411 Kbps
Описание:
На видео уроке «Введение в технологию ASP.NET MVC4» Вы узнаете о структуре шаблона веб приложения. Сможете использовать веб отладчик Fiddler
Программа урока:
Типы прoeктов в ASP.NET MVC4.
Использование Membership при авторизации и аутентификации в web-приложениях.
Тестирование в MVC.
Шаблон приложения MVC4 Internet Application.
Bundling & Minification. Оптимизация загрузки страниц.
Использование web отладчика Fiddler.
Дополнительные учебные материалы(презентация, практические примеры) можно скачать на официальной странице с уроком(Много файлов и торент не помещается в допущеные на сайте размеры).
Ссылка на урок: http://itvdn.com/ru/video/asp-net-mvc4/intro-optimization

MediaInfo

Формат : MPEG-4
Профиль формата : Base Media / Version 2
Идентификатор кодека : mp42
Размер файла : 291 Мбайт
Продолжительность : 2 ч. 10 м.
Режим общего битрейта : Переменный
Общий поток : 311 Кбит/сек
Дата кодирования : UTC 2014-01-24 17:44:08
Дата пометки : UTC 2014-01-24 17:44:08
Видео
Идентификатор : 1
Формат : AVC
Формат/Информация : Advanced Video Codec
Профиль формата : [url=mailto:Main@L3.1]Main@L3.1[/url]
Параметр CABAC формата : Да
Параметр ReFrames формата : 3 кадра
Идентификатор кодека : avc1
Идентификатор кодека/Информация : Advanced Video Coding
Продолжительность : 2 ч. 10 м.
Продолжительность оригинала : 2 ч. 10 м.
Вид битрейта : Переменный
Битрейт : 182 Кбит/сек
Ширина : 960 пикселей
Высота : 720 пикселей
Соотношение сторон : 4:3
Режим частоты кадров : Переменный
Частота кадров : 30,000 кадров/сек
Минимальная частота кадров : 30,000 кадров/сек
Максимальная частота кадров : 30,030 кадров/сек
Стандарт вещания : NTSC
Цветовое пространство : YUV
Субдискретизация насыщенности : 4:2:0
Битовая глубина : 8 бит
Тип развёртки : Прогрессивная
Бит/(Пиксели*Кадры) : 0.009
Размер потока : 171 Мбайт (59%)
Размер потока оригинала : 171 Мбайт (59%)
Язык : English
Дата кодирования : UTC 2014-01-24 17:44:17
Дата пометки : UTC 2014-01-24 17:44:17
mdhd_Duration : 7848834
Аудио
Идентификатор : 2
Формат : AAC
Формат/Информация : Advanced Audio Codec
Профиль формата : LC
Идентификатор кодека : 40
Продолжительность : 2 ч. 10 м.
Продолжительность оригинала : 2 ч. 10 м.
Вид битрейта : Переменный
Битрейт : 126 Кбит/сек
Максимальный битрейт : 285 Кбит/сек
Каналы : 2 канала
Расположение каналов : Front: L R
Частота : 44,1 КГц
Метод сжатия : С потерями
Размер потока : 118 Мбайт (40%)
Размер потока оригинала : 118 Мбайт (40%)
Язык : English
Дата кодирования : UTC 2014-01-24 17:44:17
Дата пометки : UTC 2014-01-24 17:44:17
mdhd_Duration : 7848879
Скриншоты:
Скачать .torrent

Для того, чтобы скачать торрент-файл

ITVDN - ASP.NET MVC 4 Урок 1. Введение. Оптимизация веб приложений (2014)

с нашего сайта, Вам необходимо Войти на сайт под своим логином! Если у Вас ещё нет логина, тогда Вам нужно сначала Зарегистрироваться!

Как скачивать? · Что такое торрент? · Рейтинг и ограничения

Показать сообщения:    
Ответить на тему

ITVDN - ASP.NET MVC 4 Урок 1. Введение. Оптимизация веб приложений (2014) скачать торрент (torrent), видеоуроки, тренинги, обучающее видео и видеокурсы

Текущее время: Сегодня 04:34

Часовой пояс: GMT + 4



Вы не можете начинать темы
Вы не можете отвечать на сообщения
Вы не можете редактировать свои сообщения
Вы не можете удалять свои сообщения
Вы не можете голосовать в опросах
Вы не можете прикреплять файлы к сообщениям
Вы не можете скачивать файлы