Последнее из V.I.P.-раздела

05-Авг
05-Авг
05-Авг
05-Авг
05-Авг
05-Авг
05-Авг
05-Авг
05-Авг
05-Авг
05-Авг
05-Авг
05-Авг
05-Авг
05-Авг
05-Авг
05-Авг
05-Авг
05-Авг
05-Авг

Новости о коронавирусе

AudioMasterClass - Создание музыки на компьютере в программе Cubasе (2011)

Ответить на тему
 
Автор Сообщение

Yulya ®

-AudioMasterClass - Создание музыки на компьютере в программе Cubasе (2011)- Автор (режиссер): AudioMasterClass
Жанр: Звукорежиссура
Язык: Русский
Продолжительность: 11:47:55
Качество видео: PCRec
Видеокодек: AVC/H.264
Битрейт видео: ~235 Kbps, 30.000 fps
Размер кадра: 1920x1080, 16:9
Аудиокодек: AAC
Битрейт аудио: 231 Kbps, 2 channels, 44.1 KHz
Описание: Из этого мастер-класса Вы узнаете:
- Какое оборудование необходимо и как его лучше настроить;
- Как установить и настроить Cubase 5;
- Основы работы в Cubase 5;
- Краткий обзор музыкальной теории;
- Как пользоваться звуковой библиотекой Cubase 5;
- Как записать голос, электоро и бас-гитару;
- Как корректировать интонацию голоса и ритм;
- Как пользоваться основными встроенными звуковыми эффектами Cubase 5;
- Основы сведения, необходимые для создания качественных демо-записей;
- Как сохранить свое произведение в формате wav, mp3 и записать его на CD.

Содержание курса:

Часть 1
Вводная информация
Как работать с заданиями
Необходимое оборудование
Коммутация. Типы разъемов
Мониторинг
Настройка компьютера
Резервное копирование
Основные сведения о цифровом звуке
Установка и настройка программы Cubase
Часть 2
Создание и настройки проекта
Интерфейс Cubase.
Трек темпа.
Треки Audio
Треки Instrument и Midi
Треки эффектов.
Инсерты и посылы.
Экспорт аудио
"Горячие" клавиши Cubase.
Часть 3
Форма песен. Плотность аранжировки. Внимание слушателя.
Arranger track
Embracer
GrooveAgent
LoopMash
Halion Sonic SE
Mystic, Monologue, Spector, Prologue
Настройка окон Cubase (это видео доступно всем)
Часть 4
Ноты и их буквенные обозначения
Натуральный мажор и минор, тональность, ступени, строение трезвучий и септаккордов
Надстройки
Буквенно-цифровое обозначение аккордов
Маркер-трек
Использование транспозиции
Часть 5
Программирование ударных
Запись баса
Перкуссия (использование лупов)
Работа со структурой песни
Часть 6
Запись семпловой электро-гитары
Запись клавишных
Запись струнных
LoopMash
Часть 7
Запись вокала
Запись бас-гитары
Запись электро-гитары
Часть 8
Разбор и редактирование дублей
Коррекция питча (интонации) и ритма
Основы сведения
Экспорт финального продукта
Премастеринг

MediaInfo:

General
Complete name : D:\Сведение\AudioMasterClass - Создание музыки на компьютере в программе Cubasе\01_Lesson1_Cubase_Install.mp4
Format : MPEG-4
Format profile : Base Media / Version 2
Codec ID : mp42
File size : 30.1 MiB
Duration : 8mn 31s
Overall bit rate : 494 Kbps
Encoded date : UTC 2011-08-30 08:30:05
Tagged date : UTC 2011-08-30 08:30:05
Video
ID : 1
Format : AVC
Format/Info : Advanced Video Codec
Format profile : [url=mailto:High@L4.0]High@L4.0[/url]
Format settings, CABAC : Yes
Format settings, ReFrames : 4 frames
Codec ID : avc1
Codec ID/Info : Advanced Video Coding
Duration : 8mn 31s
Source duration : 8mn 31s
Bit rate mode : Variable
Bit rate : 235 Kbps
Width : 1 920 pixels
Height : 1 080 pixels
Display aspect ratio : 16:9
Frame rate mode : Constant
Frame rate : 30.000 fps
Standard : NTSC
Color space : YUV
Chroma subsampling : 4:2:0
Bit depth : 8 bits
Scan type : Progressive
Bits/(Pixel*Frame) : 0.004
Stream size : 14.3 MiB (48%)
Source stream size : 15.9 MiB (53%)
Language : English
Encoded date : UTC 2011-08-30 08:30:05
Tagged date : UTC 2011-08-30 08:30:05
mdhd_Duration : 511063
Color primaries : BT.709
Transfer characteristics : BT.709
Matrix coefficients : BT.709
Audio
ID : 2
Format : AAC
Format/Info : Advanced Audio Codec
Format profile : LC
Codec ID : 40
Duration : 8mn 31s
Source duration : 8mn 31s
Bit rate mode : Constant
Bit rate : 231 Kbps
Channel(s) : 2 channels
Channel positions : Front: L R
Sampling rate : 44.1 KHz
Compression mode : Lossy
Stream size : 14.1 MiB (47%)
Source stream size : 14.1 MiB (47%)
Language : English
Encoded date : UTC 2011-08-30 08:30:05
Tagged date : UTC 2011-08-30 08:30:05
mdhd_Duration : 511196
Скриншоты:
Скачать .torrent

Для того, чтобы скачать торрент-файл

AudioMasterClass - Создание музыки на компьютере в программе Cubasе (2011)

с нашего сайта, Вам необходимо Войти на сайт под своим логином! Если у Вас ещё нет логина, тогда Вам нужно сначала Зарегистрироваться!

Как скачивать? · Что такое торрент? · Рейтинг и ограничения

Показать сообщения:    
Ответить на тему

AudioMasterClass - Создание музыки на компьютере в программе Cubasе (2011) скачать торрент (torrent), видеоуроки, тренинги, обучающее видео и видеокурсы

Текущее время: Сегодня 11:03

Часовой пояс: GMT + 4



Вы не можете начинать темы
Вы не можете отвечать на сообщения
Вы не можете редактировать свои сообщения
Вы не можете удалять свои сообщения
Вы не можете голосовать в опросах
Вы не можете прикреплять файлы к сообщениям
Вы не можете скачивать файлы