Wikisound.org - Профессиональное сведение и мастеринг (2013)

Ответить на тему
 
Автор Сообщение

Yulya ®

-Wikisound.org - Профессиональное сведение и мастеринг (2013)- Автор (режиссер): Wikisound.org
Жанр: Звукорежиссура
Язык: Русский
Продолжительность: 07:10:00
Качество видео: PCRec
Видеокодек: AVC/H.264
Битрейт видео: 387 Кбит/сек (VBR), 15.000 кадра/сек
Размер кадра: 1280x720, 16:9
Аудиокодек: AAC
Битрейт аудио: 192 Кбит/сек (VBR), 2 канала, 44.1 КГц
Описание: Курс состоит из 18 видео-уроков общей продолжительностью более 7-ми часов, в ходе которых на практике рассматриваются сведение трека от самого начала и до самого последнего этапа мастеринга. В курсе будет уделено большое внимание эквализации, что составляет значительную часть качественного сведения и, как ни странно, получения плотного звучания.

Дополнительная информация:

Пожалуй, один из интереснейших моментов этого виде-окурса - это сведение через мастеринг. С помощью такого подхода получается верный баланс звуков и максимальная громкость, что очень важно для конкуренции с коммерческими треками.
Другой немаловажный вопрос это настройка многополосной компрессии при мастеринге. В курсе будет рассмотрен способ настройки данного прибора именно для получения максимальной громкости и плотного звучания. Всё не так сложно, как может показаться, стоит прочувствовать это один раз на практике, и в данном вопросе станет гораздо больше ясности.

Содержание курса:

00 Введение
01 Настраиваем бочку (конструируем из 3х частей)
02 Эквализируем клэпы (лейринг 4х звуков)
03 Работаем с хэтами (удаляем кучу грязи)
04 Работаем с перкуссией (вытягиваем звук и режем лупы)
05 Ударные на переходе (чистим звук, насколько важно использовать качественные сэмплы)
06 Групповая обработка ударных (2х полосная компрессия)
07 Сведение и лейринг басов (3 одновременно звучаших баса)
08 Групповая обработка басов (решение проблемы одновременного звучания)
09 Сведение стрингов (наслоение 3х звуков и важные особенности реверберации)
10 Доведение лидов
11 Сведение эффектов (удаляем грязь)
12 Мастеринг (многополосная компрессия и максимизация)
13 Сведение через мастеринг (отстройка баланса и стерео басов)
14 Отстройка пространства лидов (решение конфликта)
15 Панорамируем ударные (создаем симметрию)
16 Важность отстройки баланса на свежий слух
17 Сводим эффекты
18 Последняя проверка в наушниках

MediaInfo:

General
Complete name : D:\Сведение\Wikisound.org - Профессиональное сведение и мастеринг\00 Введение.mp4
Format : MPEG-4
Format profile : Base Media / Version 2
Codec ID : mp42
File size : 19.6 MiB
Duration : 4mn 43s
Overall bit rate : 580 Kbps
Encoded date : UTC 2013-12-15 14:17:42
Tagged date : UTC 2013-12-15 14:17:43
©TIM : 00:00:00:00
©TSC : 15
©TSZ : 1
Video
ID : 1
Format : AVC
Format/Info : Advanced Video Codec
Format profile : [url=mailto:High@L3.2]High@L3.2[/url]
Format settings, CABAC : Yes
Format settings, ReFrames : 3 frames
Codec ID : avc1
Codec ID/Info : Advanced Video Coding
Duration : 4mn 43s
Bit rate mode : Variable
Bit rate : 387 Kbps
Width : 1 280 pixels
Height : 720 pixels
Display aspect ratio : 16:9
Frame rate mode : Variable
Frame rate : 15.000 fps
Minimum frame rate : 15.000 fps
Maximum frame rate : 15.008 fps
Standard : NTSC
Color space : YUV
Chroma subsampling : 4:2:0
Bit depth : 8 bits
Scan type : Progressive
Bits/(Pixel*Frame) : 0.028
Stream size : 13.1 MiB (67%)
Language : English
Encoded date : UTC 2013-12-15 14:17:42
Tagged date : UTC 2013-12-15 14:17:42
Color primaries : BT.709-5, BT.1361, IEC 61966-2-4, SMPTE RP177
Transfer characteristics : BT.709-5, BT.1361
Matrix coefficients : BT.709-5, BT.1361, IEC 61966-2-4 709, SMPTE RP177
Audio
ID : 2
Format : AAC
Format/Info : Advanced Audio Codec
Format version : Version 4
Format profile : LC
Format settings, SBR : No
Codec ID : 40
Duration : 4mn 43s
Bit rate mode : Variable
Bit rate : 192 Kbps
Maximum bit rate : 247 Kbps
Channel(s) : 2 channels
Channel positions : Front: L R
Sampling rate : 44.1 KHz
Stream size : 6.40 MiB (33%)
Language : English
Encoded date : UTC 2013-12-15 14:17:42
Tagged date : UTC 2013-12-15 14:17:42
Скачать .torrent

Для того, чтобы скачать торрент-файл

Wikisound.org - Профессиональное сведение и мастеринг (2013)

с нашего сайта, Вам необходимо Войти на сайт под своим логином! Если у Вас ещё нет логина, тогда Вам нужно сначала Зарегистрироваться!

Как скачивать? · Что такое торрент? · Рейтинг и ограничения

Показать сообщения:    
Ответить на тему

Wikisound.org - Профессиональное сведение и мастеринг (2013) скачать торрент (torrent), видеоуроки, тренинги, обучающее видео и видеокурсы

Текущее время: Сегодня 19:16

Часовой пояс: GMT + 4



Вы не можете начинать темы
Вы не можете отвечать на сообщения
Вы не можете редактировать свои сообщения
Вы не можете удалять свои сообщения
Вы не можете голосовать в опросах
Вы не можете прикреплять файлы к сообщениям
Вы не можете скачивать файлы