Последнее из V.I.P.-раздела

19-Ноя-19 06:59
19-Ноя-19 06:58
19-Ноя-19 06:54
19-Ноя-19 06:49
19-Ноя-19 06:47
19-Ноя-19 06:46
19-Ноя-19 06:37
19-Ноя-19 06:35
19-Ноя-19 06:30
19-Ноя-19 06:25

Андрей Александрович - Начинаем работать с 1С: выбор, установка и настройка (2013)

Ответить на тему
 
Автор Сообщение

Yulya ®

-Андрей Александрович - Начинаем работать с 1С: выбор, установка и настройка (2013)- Автор (режиссер): Андрей Александрович
Жанр: Обучающие видеуроки
Продолжительность: 01:34:00
Качество видео: PCRec
Видеокодек: MPEG4 (AVC)
Битрейт видео: ~678 Kbps
Размер кадра: 1280х720
Аудиокодек: AAC
Битрейт аудио: 192 Kbps, 2 ch
Описание:
Как выбрать 1С для покупки
В чем отличие конфигурации 1С от платформы
Какие существуют особенности лицензировании 1С
Что нужно знать при установке 1С
Как начать работать с 1С

Дополнительные сведения:

Принципы, которыми стоит руководствоваться при выборе продуктов 1С для автоматизации учета в компании
Готовый набор рекомендаций для руководителей IT-отделов, которые они могут донести до владельцев бизнеса по выбору того или иного решения 1С
Подробная информация об особенностях лицензирования продуктов 1С. Дополнительные лицензии при подключении новых пользователей
Отличие онлайн-поставки подукта от вариантов поставки с USB-ключом
Три варианта работы с информационной базой 1С
Администрирование сетевой информационной базы
Создание и восстановление резервной копии 1С
Добавление новых пользователей в 1С
Назначение ролей пользователям 1С

MediaInfo:

General
Format : MPEG-4
Format profile : Base Media / Version 2
Codec ID : mp42
File size : 589 MiB
Duration : 1h 34mn
Overall bit rate : 873 Kbps
Encoded date : UTC 2014-01-22 16:52:59
Tagged date : UTC 2014-01-22 16:52:59
Video
ID : 1
Format : AVC
Format/Info : Advanced Video Codec
Format profile : [url=mailto:High@L3.1]High@L3.1[/url]
Format settings, CABAC : Yes
Format settings, ReFrames : 1 frame
Codec ID : avc1
Codec ID/Info : Advanced Video Coding
Duration : 1h 34mn
Bit rate mode : Variable
Bit rate : 678 Kbps
Maximum bit rate : 5 806 Kbps
Width : 1 280 pixels
Height : 720 pixels
Display aspect ratio : 16:9
Frame rate mode : Constant
Frame rate : 29.970 fps
Color space : YUV
Chroma subsampling : 4:2:0
Bit depth : 8 bits
Scan type : Progressive
Bits/(Pixel*Frame) : 0.025
Stream size : 458 MiB (78%)
Tagged date : UTC 2014-01-22 16:57:13
Audio
ID : 2
Format : AAC
Format/Info : Advanced Audio Codec
Format profile : LC
Codec ID : 40
Duration : 1h 34mn
Bit rate mode : Variable
Bit rate : 192 Kbps
Maximum bit rate : 203 Kbps
Channel(s) : 2 channels
Channel positions : Front: L R
Sampling rate : 44.1 KHz
Compression mode : Lossy
Stream size : 130 MiB (22%)
Title : IsoMedia File Produced by Google, 5-11-2011
Encoded date : UTC 2014-01-22 16:55:24
Tagged date : UTC 2014-01-22 16:57:13
Скачать .torrent

Для того, чтобы скачать торрент-файл

Андрей Александрович - Начинаем работать с 1С: выбор, установка и настройка (2013)

с нашего сайта, Вам необходимо Войти на сайт под своим логином! Если у Вас ещё нет логина, тогда Вам нужно сначала Зарегистрироваться!

Как скачивать? · Что такое торрент? · Рейтинг и ограничения

Показать сообщения:    
Ответить на тему

Андрей Александрович - Начинаем работать с 1С: выбор, установка и настройка (2013) скачать торрент (torrent), видеоуроки, тренинги, обучающее видео и видеокурсы

Текущее время: Сегодня 15:19

Часовой пояс: GMT + 4



Вы не можете начинать темы
Вы не можете отвечать на сообщения
Вы не можете редактировать свои сообщения
Вы не можете удалять свои сообщения
Вы не можете голосовать в опросах
Вы не можете прикреплять файлы к сообщениям
Вы не можете скачивать файлы