AudioMasterClass - Секреты аудио-мастеринга на ПК (2011)

Ответить на тему
 
Автор Сообщение

Yulya ®

-AudioMasterClass - Секреты аудио-мастеринга на ПК (2011)- Автор (режиссер): AudioMasterClass
Жанр: Работа со звуком
Язык: Русский
Продолжительность: 00:49:20
Качество видео: PCRec
Видеокодек: TSCC
Битрейт видео: ~2 970 Kbps, 15.000 fps
Размер кадра: 1280x720, 16:9
Аудиокодек: PCM
Битрейт аудио: 1 536 Kbps, 2 channels, 48.0 KHz
Описание: Мастер-класс построен по принципу практической видео-инструкции. Это видео демонстрирует, как при помощи VST-плагинов Вы можете добиться "коммерческого" звучания своих треков.
Для участия во всевозможных конкурсах и кастингах требуются демо-материалы. Продюсеры и програмные директора прослушивают их сотнями. И у вас должна быть уверенность в том, Ваша запись прозвучит выигрышно в сравнении с записями других исполнителей. Теперь у Вас такая возможность есть. Делая мастеринг Вы сможете добиться отличного плотного "коммерческого" звучания!

Дополнительная информация:

Обычно мастеринг - последняя ступень в работе над песней. Поэтому применяется он, как правило, к финальному, альбомному варианту. Но случается, что Вам необходимо продемонстрировать кому-то демо-материал. И в этом случае мастерить каждый демо-трек довольно дорого. Но если Вы умеете делать мастеринг самостоятельно, то Вы можете себе это позволить без лишних затрат!
Если Вы работаете на заказ как аранжировщик или звукорежиссер, то Ваши клиенты непременно оценят новый уровень звучания Ваших работ и будут работать с Вами с ещё большим энтузиазмом. В Ваш саунд-продюсерский арсенал добавится ещё одно мощное средство! Если Ваша музыка интересна, аранжировки оригинальны, сведение тоже на высоте, то, возможно, это единственный недостающий элемент успеха! Теперь он у Вас будет!
Многие слышали об использовании в мастеринге технологии MID-SIDE. По этой технологии работают практически все мастеринг-компании. Теперь Вы тоже сможете использовать преимущества MID-SIDE-мастеринга, т.к. в нашем видео-мастер-классе мы подробно рассматриваем именно этот принцип работы.
Если Вы уже работаете в каком-либо музыкальном редакторе и знаете что такое VST-плагины, то у Вас не должно возникнуть трудностей. В мастер-классе дана четкая схема последовательности действий. Вам не понадобится многолетний опыт. Вам необходимо будет просто повторить эту схему применительно к своей песне. Стилистика музыки тоже особого значения не имеет, т.к. этот вариант мастеринга построен на применении анализа референсных файлов, т.е. Вы сможете проанализировать звук своих кумиров и перенести его основные качества на звучание своих треков.

MediaInfo:

General
Complete name : E:\TORRENTS.RU\AudioMasterClass - Секреты аудио-мастеринга на ПК\AudioMasterClass - Секреты аудио-мастеринга на ПК.avi
Format : AVI
Format/Info : Audio Video Interleave
Format profile : OpenDML
File size : 1.55 GiB
Duration : 49mn 20s
Overall bit rate : 4 509 Kbps
Video
ID : 0
Format : TechSmith
Codec ID : tscc
Codec ID/Info : TechSmith Screen Capture
Duration : 49mn 20s
Bit rate : 2 970 Kbps
Width : 1 280 pixels
Height : 720 pixels
Display aspect ratio : 16:9
Frame rate : 15.000 fps
Bits/(Pixel*Frame) : 0.215
Stream size : 1.02 GiB (66%)
Audio
ID : 1
Format : PCM
Format settings, Endianness : Little
Format settings, Sign : Signed
Codec ID : 1
Duration : 49mn 20s
Bit rate mode : Constant
Bit rate : 1 536 Kbps
Channel(s) : 2 channels
Sampling rate : 48.0 KHz
Bit depth : 16 bits
Stream size : 542 MiB (34%)
Interleave, duration : 1000 ms (15.00 video frames)
Interleave, preload duration : 750 ms
Скриншоты:
Скачать .torrent

Для того, чтобы скачать торрент-файл

AudioMasterClass - Секреты аудио-мастеринга на ПК (2011)

с нашего сайта, Вам необходимо Войти на сайт под своим логином! Если у Вас ещё нет логина, тогда Вам нужно сначала Зарегистрироваться!

Как скачивать? · Что такое торрент? · Рейтинг и ограничения

Показать сообщения:    
Ответить на тему

AudioMasterClass - Секреты аудио-мастеринга на ПК (2011) скачать торрент (torrent), видеоуроки, тренинги, обучающее видео и видеокурсы

Текущее время: Сегодня 16:13

Часовой пояс: GMT + 4



Вы не можете начинать темы
Вы не можете отвечать на сообщения
Вы не можете редактировать свои сообщения
Вы не можете удалять свои сообщения
Вы не можете голосовать в опросах
Вы не можете прикреплять файлы к сообщениям
Вы не можете скачивать файлы