Виталий Ичин - Миллионер ВКонтакте (2012)

Ответить на тему
 
Автор Сообщение

Yulya ®

-Виталий Ичин - Миллионер ВКонтакте (2012)- Автор (режиссер): Виталий Ичин
Жанр: Обучающий видеокурс
Продолжительность: 02:41:24
Качество видео: PCRec
Видеокодек: AVC
Битрейт видео: ~29.97fps 309kbps
Размер кадра: 1280x720
Аудиокодек: AAC
Битрейт аудио: 44100Hz stereo 192kbps
Описание:
Получите самые секретные фишки и технологии по заработку ВКонтакте. Пройдя данный видеокурс, вы научитесь выжимать по максимуму из своего паблика даже когда у вас будет всего 50 000 подписчиков.Вы научитесь применять все самые лучшие фишки и наработки, о которых вы не узнаете нигде. Вы сэкономите уйму денег и времени, минуя все ошибки, которые можно совершить на первом этапе. Все что от вас требуется - это чётко следовать плану данного курса и тогда результат не заставит себя ждать. Вы создадите стабильный источник дохода, приносящий Вам действительно БОЛЬШИЕ ДЕНЬГИ!

Дополнительная информация:

В этом видеокурсе вы получите ответы на все вопросы по организации вашего онлайн-бизнеса ВКонтакте! Когда вы уберете от себя всю рутинную работу, вы сможете полноценно управлять внутренними процессами. Научитесь делегировать менее важные полномочия своим сотрудникам, а сами сконцентрируетесь на решении важных вопросов стратегического развития. Вы построите машину с таким алгоритмом работы, который будет работать на вас, а не вы на него.
После выполнения всех шагов этого курса у Вас на руках уже будет интересное сообщество ВКонтакте с огромным потенциалом, которое Вы будете развивать дальше и набирать обороты.
Вы не будете бояться, что у Вас ничего не выйдет при открытии своего бизнеса в интернете. Теперь Вы сможете смело вкладывать деньги в свой бизнес, потому что у вас будет 100% уверенность в том, что теперь у Вас все получится!

Программа видеокурса

1 Блок - Оформление
Правильный подход к выбору темы для публичной страницы
Выбор выгодного названия для публичной страницы
Разработка эксклюзивного стиля публичной страницы
Доступ к нашему дизайнеру. Возможность разработать дизайн на заказ
Три источника для поиска контента
Как правильно настроить публичную страницу
Правила ведения публичной страницы
Готовые шаблоны Photoshop
Уроки Photoshop для самостоятельного создания дизайна и постов
Доступ к лучшему дизайнеру контакта, специализирующегося на дизайне пабликов и групп
2 Блок - Реклама
Вирусные посты и их виды
Правильное использование вирусных постов для рекламы
Анализ статистики на примере рекламы вирусными постами
Три лучших источника для поиска вирусных постов
Выгодная покупка рекламы. Как и с кем договариваться о рекламе вашего паблика
Эффективное использование гиперссылки
Статистика паблика, подробный разбор
Как правильно проводить тестирование рекламного поста
Список самых больших пабликов контакта
Уникальная программа для поиска пабликов
Выбираем самое эффективное время для рекламы
Бюджет, необходимый для старта
Цена подписчика
Накрутка и ее минусы
Как раскручивать паблик за счёт рекламодателей, не вкладывая ни копейки
3 Блок - Взаимная реклама
Система взаимодействия с другими публичными страницами
Подводные камни и ошибки взаимопиара
Секрет раскрутки паблика без вложений
Как начать зарабатывать, не вложив ни копейки
Как не остаться в дураках и вытащить максимальную выгоду от взаимной рекламы
Правда о статистике. На что впервую очередь обращать внимание при взаимном пиаре
4 Блок - Монетизация паблика - Заработок
Как грамотно составить прайс-лист и где
Как составлять цены на рекламу в своем паблике
Когда ничинается заработок
Основные способы монетизации
Сколько можно зарабатывать
Специальный график для качественного ведения рекламы и обменов
Взаимодействие с рекламодателями
Как самостоятельно набрать собственную базу рекламодателей
Как максимально эффективно монетизировать базу рекламодателей
Как зарабатывать на еще не раскрученном паблике за счет рекламодателей
Как раскрутить паблик за счет рекламодателей
Как зарабатывать на чужих пабликах столько же, сколько на своем
Заработок на подписчиках
Что нельзя рекламировать, последствия
Какое максимальное количество рекламы допустимо для размещения в паблике
Партнерские программы
Как зарабатывать на партнерских программах, имея паблик
Как зарабатывать на партнерских программах, не имея паблик
5 Блок - Автоматизация всех процессов
Программы автопостинга, как ими пользоваться
Как максимально сократить время работы
Через какой промежуток времени начинать процесс автоматизации и нанимать администраторов
Как правильно нанять администраторов
Условия работы администраторов, выгодные для вас
Условия сотрудничества, при которых платить не нужно
Три вида администраторов и их задачи

MI

Общее
Полное имя : D:\Андрей\Platinum\Раздел 1 - Оформление\1_Оформление паблика Часть 1.mp4
Формат : MPEG-4
Профиль формата : Base Media / Version 2
Идентификатор кодека : mp42
Размер файла : 42,4 Мбайт
Продолжительность : 11 м.
Режим общего битрейта : Переменный
Общий поток : 504 Кбит/сек
Дата кодирования : UTC 2012-08-13 23:42:21
Дата пометки : UTC 2012-08-13 23:42:21
gsst : 0
gstd : 705190
gssd : BD075E2C2HH1355498344660297
gshh : r6---sn-4g57kb7z.c.youtube.com
Видео
Идентификатор : 1
Формат : AVC
Формат/Информация : Advanced Video Codec
Профиль формата : [url=mailto:High@L3.1]High@L3.1[/url]
Параметр CABAC формата : Да
Параметр ReFrames формата : 1 кадр
Параметр GOP формата : M=1, N=60
Идентификатор кодека : avc1
Идентификатор кодека/Информация : Advanced Video Coding
Продолжительность : 11 м.
Битрейт : 310 Кбит/сек
Максимальный битрейт : 3167 Кбит/сек
Ширина : 1280 пикселей
Высота : 720 пикселей
Соотношение сторон : 16:9
Режим частоты кадров : Постоянный
Частота кадров : 29,970 кадров/сек
Цветовое пространство : YUV
Субдискретизация насыщенности : 4:2:0
Битовая глубина : 8 бит
Тип развёртки : Прогрессивная
Бит/(Пиксели*Кадры) : 0.011
Размер потока : 26,0 Мбайт (61%)
Дата пометки : UTC 2012-08-13 23:42:21
Аудио
Идентификатор : 2
Формат : AAC
Формат/Информация : Advanced Audio Codec
Профиль формата : LC
Идентификатор кодека : 40
Продолжительность : 11 м.
Вид битрейта : Переменный
Битрейт : 192 Кбит/сек
Максимальный битрейт : 201 Кбит/сек
Каналы : 2 канала
Расположение каналов : Front: L R
Частота : 44,1 КГц
Метод сжатия : С потерями
Размер потока : 16,1 Мбайт (38%)
Заголовок : IsoMedia File Produced by Google, 5-11-2011
Дата кодирования : UTC 2012-08-13 23:42:21
Дата пометки : UTC 2012-08-13 23:42:21
Скриншоты:
Скачать .torrent

Для того, чтобы скачать торрент-файл

Виталий Ичин - Миллионер ВКонтакте (2012)

с нашего сайта, Вам необходимо Войти на сайт под своим логином! Если у Вас ещё нет логина, тогда Вам нужно сначала Зарегистрироваться!

Как скачивать? · Что такое торрент? · Рейтинг и ограничения

Показать сообщения:    
Ответить на тему

Виталий Ичин - Миллионер ВКонтакте (2012) скачать торрент (torrent), видеоуроки, тренинги, обучающее видео и видеокурсы

Текущее время: Сегодня 07:39

Часовой пояс: GMT + 4



Вы не можете начинать темы
Вы не можете отвечать на сообщения
Вы не можете редактировать свои сообщения
Вы не можете удалять свои сообщения
Вы не можете голосовать в опросах
Вы не можете прикреплять файлы к сообщениям
Вы не можете скачивать файлы