Иван Рубель - Подбор пароля с помощью брутфорс (2013)

Ответить на тему
 
Автор Сообщение

Yulya ®

-Иван Рубель - Подбор пароля с помощью брутфорс (2013)- Автор (режиссер): Иван Рубель
Жанр: Обучающие видеуроки
Продолжительность: 00:07:08
Качество видео: PCRec
Видеокодек: MPEG-2
Битрейт видео: ~3 078 Kbps
Размер кадра: 1920х1080
Аудиокодек: MP2
Битрейт аудио: 192 Kbps, 2 ch
Описание:
В этом видео уроке мы с вами узнаем, как хакеры делают подбор пароля с помощью брутфорса. Если вы действительно хотите сделать так, чтобы хакер не смог взломать ваш пароль или хотя бы затруднить ему эту задачу, вам необходимо изучить этот урок.

MediaInfo:

General
Format : MPEG-PS
File size : 170 MiB
Duration : 7mn 8s
Overall bit rate : 3 336 Kbps
Video
ID : 224 (0xE0)
Format : MPEG Video
Format version : Version 2
Format profile : Main@Main
Format settings, BVOP : Yes
Format settings, Matrix : Default
Format settings, GOP : M=3, N=15
Duration : 7mn 7s
Bit rate mode : Variable
Bit rate : 3 078 Kbps
Nominal bit rate : 2 519 Mbps
Width : 1 920 pixels
Height : 1 080 pixels
Display aspect ratio : 4:3
Frame rate : 29.970 fps
Color space : YUV
Chroma subsampling : 4:2:0
Bit depth : 8 bits
Scan type : Progressive
Compression mode : Lossy
Bits/(Pixel*Frame) : 0.050
Stream size : 157 MiB (92%)
Audio
ID : 192 (0xC0)
Format : MPEG Audio
Format version : Version 1
Format profile : Layer 2
Duration : 7mn 8s
Bit rate mode : Constant
Bit rate : 192 Kbps
Channel(s) : 2 channels
Sampling rate : 48.0 KHz
Compression mode : Lossy
Delay relative to video : 1s 15ms
Stream size : 9.80 MiB (6%)
Скриншоты:
Скачать .torrent

Для того, чтобы скачать торрент-файл

Иван Рубель - Подбор пароля с помощью брутфорс (2013)

с нашего сайта, Вам необходимо Войти на сайт под своим логином! Если у Вас ещё нет логина, тогда Вам нужно сначала Зарегистрироваться!

Как скачивать? · Что такое торрент? · Рейтинг и ограничения

Показать сообщения:    
Ответить на тему

Иван Рубель - Подбор пароля с помощью брутфорс (2013) скачать торрент (torrent), видеоуроки, тренинги, обучающее видео и видеокурсы

Текущее время: Сегодня 20:19

Часовой пояс: GMT + 4



Вы не можете начинать темы
Вы не можете отвечать на сообщения
Вы не можете редактировать свои сообщения
Вы не можете удалять свои сообщения
Вы не можете голосовать в опросах
Вы не можете прикреплять файлы к сообщениям
Вы не можете скачивать файлы