Василий Купчихин - Быстрое создание Portable версий программ (2014)

Ответить на тему
 
Автор Сообщение

Yulya ®

-Василий Купчихин - Быстрое создание Portable версий программ (2014)- Автор (режиссер): Василий Купчихин
Жанр: Обучающее видео
Продолжительность: 00:12:32
Качество видео: PCRec
Видеокодек: AVC
Битрейт видео: ~15fps 558kbps
Размер кадра: 1280x720
Аудиокодек: AAC
Битрейт аудио: 44100Hz stereo 192kbps
Описание:
В настоящее время достаточно средств, которые позволяют приложения превращать в portable версии. Есть как бесплатные решения так и платные версии. Cameyo предлагает бесплатное средство создания виртуальных приложений. Программа Cameyo очень проста в работе, для создания портативного пакета требуется сделать буквально несколько кликов мышью. Построенное на базе современных технологий виртуализации, решение Cameyo способно целиком упаковывать выбранное приложение в отдельный исполняемый файл, исключая необходимость в его установке на жесткий диск. Обработанное приложение становится портативным и может переноситься с одного компьютера на другой на обычном USB-накопителе или в облака.

MI

Общее
Полное имя : D:\Андрей\Быстрое создание Portable .mp4
Формат : MPEG-4
Профиль формата : Base Media / Version 2
Идентификатор кодека : mp42
Размер файла : 67,4 Мбайт
Продолжительность : 12 м.
Режим общего битрейта : Переменный
Общий поток : 753 Кбит/сек
Дата кодирования : UTC 2014-01-19 19:53:16
Дата пометки : UTC 2014-01-19 19:53:16
gsst : 0
gstd : 751651
gssd : B4A7D6EECHH1390291111377636
gshh : r12---sn-n8v7sn7d.googlevideo.com
Видео
Идентификатор : 1
Формат : AVC
Формат/Информация : Advanced Video Codec
Профиль формата : [url=mailto:High@L3.1]High@L3.1[/url]
Параметр CABAC формата : Да
Параметр ReFrames формата : 1 кадр
Идентификатор кодека : avc1
Идентификатор кодека/Информация : Advanced Video Coding
Продолжительность : 12 м.
Битрейт : 558 Кбит/сек
Максимальный битрейт : 6171 Кбит/сек
Ширина : 1280 пикселей
Высота : 720 пикселей
Соотношение сторон : 16:9
Режим частоты кадров : Постоянный
Частота кадров : 15,000 кадров/сек
Цветовое пространство : YUV
Субдискретизация насыщенности : 4:2:0
Битовая глубина : 8 бит
Тип развёртки : Прогрессивная
Бит/(Пиксели*Кадры) : 0.040
Размер потока : 50,0 Мбайт (74%)
Дата пометки : UTC 2014-01-19 19:53:19
Аудио
Идентификатор : 2
Формат : AAC
Формат/Информация : Advanced Audio Codec
Профиль формата : LC
Идентификатор кодека : 40
Продолжительность : 12 м.
Вид битрейта : Переменный
Битрейт : 192 Кбит/сек
Максимальный битрейт : 202 Кбит/сек
Каналы : 2 канала
Расположение каналов : Front: L R
Частота : 44,1 КГц
Метод сжатия : С потерями
Размер потока : 17,2 Мбайт (26%)
Заголовок : IsoMedia File Produced by Google, 5-11-2011
Дата кодирования : UTC 2014-01-19 19:53:17
Дата пометки : UTC 2014-01-19 19:53:19
Скриншоты:
Скачать .torrent

Для того, чтобы скачать торрент-файл

Василий Купчихин - Быстрое создание Portable версий программ (2014)

с нашего сайта, Вам необходимо Войти на сайт под своим логином! Если у Вас ещё нет логина, тогда Вам нужно сначала Зарегистрироваться!

Как скачивать? · Что такое торрент? · Рейтинг и ограничения

Показать сообщения:    
Ответить на тему

Василий Купчихин - Быстрое создание Portable версий программ (2014) скачать торрент (torrent), видеоуроки, тренинги, обучающее видео и видеокурсы

Текущее время: Сегодня 00:27

Часовой пояс: GMT + 4



Вы не можете начинать темы
Вы не можете отвечать на сообщения
Вы не можете редактировать свои сообщения
Вы не можете удалять свои сообщения
Вы не можете голосовать в опросах
Вы не можете прикреплять файлы к сообщениям
Вы не можете скачивать файлы