Дмитрий Охрименко - Видео урок Windows Presentation Foundation(WPF). Введение в WPF и XAML (2014)

Ответить на тему
 
Автор Сообщение

Yulya ®

-Дмитрий Охрименко - Видео урок Windows Presentation Foundation(WPF). Введение в WPF и XAML (2014)- Автор (режиссер): Дмитрий Охрименко
Жанр: Видео урок
Продолжительность: 00:36:22
Производитель: ITVDN
Качество видео: DVDRip
Видеокодек: AVC1/H.264
Битрейт видео: ~50 Kbps
Размер кадра: 1280*720
Аудиокодек: AAC
Битрейт аудио: 44,100 Hz, 2 Ch, 16 bits, 1411 Kbps
Описание:
Видео курс Windows Presentationi Foundation (WPF) необходим начинающим UI разработчикам, которые уже имеют опыт программирования на языке C#. После видео курса вы легко сможете создавать Desktop приложения. Вы узнаете о таких сложных конструкциях как маршрутизируемое событие и свойство зависимости, узнаете как использовать контейнеры компоновки, ресурсы, команды. Сможете манипулировать пользовательским интерфейсом черес элементы управления, узнаете о триггерах в WPF. После прохождения курса Вы научитесь создавать полноценные Desktop приложения со своим, авторским адаптивным дизайном.
Первый урок является вводным, программа которого состоит из:
Преимуществ технологии WPF;
Архитектуры WPF;
Визуализации элементов управления WPF;
Особенностей построения графических приложений в Windows;
Основ XAML;
Загрузки и компиляции XAML.
К каждому уроку предоставляются дополнительные учебные материалы, по которым можно самостоятельно повторить на практике все, что выполнял тренер во время лекции.

MediaInfo

Формат : MPEG-4
Профиль формата : Base Media / Version 2
Идентификатор кодека : mp42
Размер файла : 72,2 Мбайт
Продолжительность : 36 м.
Режим общего битрейта : Переменный
Общий поток : 277 Кбит/сек
Дата кодирования : UTC 2014-01-10 12:20:46
Дата пометки : UTC 2014-01-10 12:20:46
Видео
Идентификатор : 1
Формат : AVC
Формат/Информация : Advanced Video Codec
Профиль формата : [url=mailto:Main@L3.1]Main@L3.1[/url]
Параметр CABAC формата : Да
Параметр ReFrames формата : 3 кадра
Идентификатор кодека : avc1
Идентификатор кодека/Информация : Advanced Video Coding
Продолжительность : 36 м.
Продолжительность оригинала : 36 м.
Вид битрейта : Переменный
Битрейт : 149 Кбит/сек
Ширина : 1280 пикселей
Высота : 720 пикселей
Соотношение сторон : 16:9
Режим частоты кадров : Переменный
Частота кадров : 30,000 кадров/сек
Минимальная частота кадров : 30,000 кадров/сек
Максимальная частота кадров : 30,030 кадров/сек
Стандарт вещания : NTSC
Цветовое пространство : YUV
Субдискретизация насыщенности : 4:2:0
Битовая глубина : 8 бит
Тип развёртки : Прогрессивная
Бит/(Пиксели*Кадры) : 0.005
Размер потока : 38,8 Мбайт (54%)
Размер потока оригинала : 38,8 Мбайт (54%)
Язык : English
Дата кодирования : UTC 2014-01-10 12:20:47
Дата пометки : UTC 2014-01-10 12:20:47
mdhd_Duration : 2182667
Аудио
Идентификатор : 2
Формат : AAC
Формат/Информация : Advanced Audio Codec
Профиль формата : LC
Идентификатор кодека : 40
Продолжительность : 36 м.
Продолжительность оригинала : 36 м.
Вид битрейта : Переменный
Битрейт : 126 Кбит/сек
Максимальный битрейт : 163 Кбит/сек
Каналы : 2 канала
Расположение каналов : Front: L R
Частота : 44,1 КГц
Метод сжатия : С потерями
Размер потока : 32,7 Мбайт (45%)
Размер потока оригинала : 32,7 Мбайт (45%)
Язык : English
Дата кодирования : UTC 2014-01-10 12:20:47
Дата пометки : UTC 2014-01-10 12:20:47
mdhd_Duration : 2182699
Скриншоты:
Скачать .torrent

Для того, чтобы скачать торрент-файл

Дмитрий Охрименко - Видео урок Windows Presentation Foundation(WPF). Введение в WPF и XAML (2014)

с нашего сайта, Вам необходимо Войти на сайт под своим логином! Если у Вас ещё нет логина, тогда Вам нужно сначала Зарегистрироваться!

Как скачивать? · Что такое торрент? · Рейтинг и ограничения

Показать сообщения:    
Ответить на тему

Дмитрий Охрименко - Видео урок Windows Presentation Foundation(WPF). Введение в WPF и XAML (2014) скачать торрент (torrent), видеоуроки, тренинги, обучающее видео и видеокурсы

Текущее время: Сегодня 15:19

Часовой пояс: GMT + 4



Вы не можете начинать темы
Вы не можете отвечать на сообщения
Вы не можете редактировать свои сообщения
Вы не можете удалять свои сообщения
Вы не можете голосовать в опросах
Вы не можете прикреплять файлы к сообщениям
Вы не можете скачивать файлы