Wikisound.org - Пространство (2013)

Ответить на тему
 
Автор Сообщение

Yulya ®

-Wikisound.org - Пространство (2013) - Автор (режиссер): Wikisound.org
Жанр: Работа со звуком
Язык: Русский
Продолжительность: 03:15:39
Качество видео: PCRec
Видеокодек: AVC/H.264
Битрейт видео: ~653 Kbps, 25.000 fps
Размер кадра: 1280x720, 16:9
Аудиокодек: AAC
Битрейт аудио: ~192 Kbps, 2 channels, 44.1 KHz
Описание: Сергей Live представляет один из лучших курсов по пространственной обработке микса. Все просто, доступно и понятно. 21 урок и больше 3-х часов видео.

Содержание:

01 Как правильно работать с пространством микса
02 Расширение разведением различных тембров
03 Создавайте широкий звук при записи
04 Расширение эффектом Хааса
05 Расширение расстройкой
06 Расширение стерео эквализацией
07 Что такое мид-сайд (расширяем за пределы колонок)
08 Как сделать мощное стерео
09 Удаление реверберации (приближение звука)
10 Что такое реверберация
11 Виды ревербераторов
12 Особенности ревербераторов
13 Как работать с реверберацией
14 Другие эффекты оказывающее влияние на пространство
15 Панорамирование
16 Управление планами
17 Компрессор как пространственный эффект
18 Эквалайзер как эффект работы с вертикальным измерением
19 Непростые советы по применению эквалайзера
20 Моносовместимость
21 Мелкие но очень важные темы и советы

MediaInfo:

General
Complete name : H:\Фильмы\Wikisound.org - Пространство\01 Как правильно работать с пространством микса.mp4
Format : MPEG-4
Format profile : Base Media / Version 2
Codec ID : mp42
File size : 53.7 MiB
Duration : 8mn 51s
Overall bit rate : 847 Kbps
Encoded date : UTC 2013-11-04 00:22:11
Tagged date : UTC 2013-11-04 00:22:11
gsst : 0
gstd : 531828
gssd : BADC21522HH1388218191512318
gshh : r2---sn-3c27ln7l.googlevideo.com
Video
ID : 1
Format : AVC
Format/Info : Advanced Video Codec
Format profile : [url=mailto:High@L3.1]High@L3.1[/url]
Format settings, CABAC : Yes
Format settings, ReFrames : 1 frame
Codec ID : avc1
Codec ID/Info : Advanced Video Coding
Duration : 8mn 51s
Bit rate mode : Variable
Bit rate : 653 Kbps
Maximum bit rate : 9 158 Kbps
Width : 1 280 pixels
Height : 720 pixels
Display aspect ratio : 16:9
Frame rate mode : Constant
Frame rate : 25.000 fps
Color space : YUV
Chroma subsampling : 4:2:0
Bit depth : 8 bits
Scan type : Progressive
Bits/(Pixel*Frame) : 0.028
Stream size : 41.4 MiB (77%)
Tagged date : UTC 2013-11-04 00:22:20
Audio
ID : 2
Format : AAC
Format/Info : Advanced Audio Codec
Format version : Version 4
Format profile : LC
Format settings, SBR : No
Codec ID : 40
Duration : 8mn 51s
Bit rate mode : Variable
Bit rate : 192 Kbps
Maximum bit rate : 201 Kbps
Channel(s) : 2 channels
Channel positions : Front: L R
Sampling rate : 44.1 KHz
Stream size : 12.2 MiB (23%)
Title : IsoMedia File Produced by Google, 5-11-2011
Encoded date : UTC 2013-11-04 00:22:16
Tagged date : UTC 2013-11-04 00:22:20
Скачать .torrent

Для того, чтобы скачать торрент-файл

Wikisound.org - Пространство (2013)

с нашего сайта, Вам необходимо Войти на сайт под своим логином! Если у Вас ещё нет логина, тогда Вам нужно сначала Зарегистрироваться!

Как скачивать? · Что такое торрент? · Рейтинг и ограничения

Показать сообщения:    
Ответить на тему

Wikisound.org - Пространство (2013) скачать торрент (torrent), видеоуроки, тренинги, обучающее видео и видеокурсы

Текущее время: Сегодня 13:59

Часовой пояс: GMT + 4



Вы не можете начинать темы
Вы не можете отвечать на сообщения
Вы не можете редактировать свои сообщения
Вы не можете удалять свои сообщения
Вы не можете голосовать в опросах
Вы не можете прикреплять файлы к сообщениям
Вы не можете скачивать файлы