Wikisound.org - Компрессия (2013)

Ответить на тему
 
Автор Сообщение

Yulya ®

-Wikisound.org - Компрессия (2013)- Автор (режиссер): Wikisound.org
Жанр: Работа со звуком
Язык: Русский
Продолжительность: 03:20:41
Качество видео: PCRec
Видеокодек: AVC/H.264
Битрейт видео: ~1 685 Kbps, 25.000 fps
Размер кадра: 1280x720, 16:9
Аудиокодек: AAC
Битрейт аудио: ~318 Kbps, 2 channels, 44.1 KHz
Описание: Сергей Live представляет один из лучших курсов по компрессии. Все просто, доступно и понятно. 17 уроков и больше 3-х часов видео.

Содержание:

01 Что такое компрессор звука и как он работает
02 Принцип работы звукового компрессора
03 Принцип работы параметров компрессора
04 Техника настройки компрессора
05 Групповая компрессия
06 Сайдчейн компрессия
07 Параллельная компрессия
08 Многополосная компрессия
09 Компрессия в электронной музыке
10 Как лучше воспринимать компрессию
11 Серийная компрессия
12 Реверсивная компрессия
13 Гейт
14 Экспандер
15 Деэссер
16 Транзиентшейпер
17 Лимитер

MediaInfo:

General
Complete name : H:\Фильмы\Видео от проекта wikisound.org\Курс по компрессии\01 Что такое компрессор и как он работает.mp4
Format : MPEG-4
Format profile : Base Media / Version 2
Codec ID : mp42
File size : 112 MiB
Duration : 7mn 49s
Overall bit rate : 2 008 Kbps
Encoded date : UTC 2012-12-16 10:25:15
Tagged date : UTC 2012-12-16 10:25:15
Video
ID : 1
Format : AVC
Format/Info : Advanced Video Codec
Format profile : [url=mailto:Main@L3.2]Main@L3.2[/url]
Format settings, CABAC : Yes
Format settings, ReFrames : 4 frames
Codec ID : avc1
Codec ID/Info : Advanced Video Coding
Duration : 7mn 49s
Bit rate mode : Variable
Bit rate : 1 685 Kbps
Width : 1 280 pixels
Height : 720 pixels
Display aspect ratio : 16:9
Frame rate mode : Constant
Frame rate : 25.000 fps
Standard : NTSC
Color space : YUV
Chroma subsampling : 4:2:0
Bit depth : 8 bits
Scan type : Progressive
Bits/(Pixel*Frame) : 0.073
Stream size : 94.3 MiB (84%)
Language : English
Encoded date : UTC 2012-12-16 10:25:15
Tagged date : UTC 2012-12-16 10:25:15
Audio
ID : 2
Format : AAC
Format/Info : Advanced Audio Codec
Format version : Version 4
Format profile : LC
Format settings, SBR : No
Codec ID : 40
Duration : 7mn 49s
Bit rate mode : Variable
Bit rate : 318 Kbps
Maximum bit rate : 338 Kbps
Channel(s) : 2 channels
Channel positions : Front: L R
Sampling rate : 44.1 KHz
Stream size : 17.8 MiB (16%)
Language : English
Encoded date : UTC 2012-12-16 10:25:15
Tagged date : UTC 2012-12-16 10:25:15
Скриншоты:
Скачать .torrent

Для того, чтобы скачать торрент-файл

Wikisound.org - Компрессия (2013)

с нашего сайта, Вам необходимо Войти на сайт под своим логином! Если у Вас ещё нет логина, тогда Вам нужно сначала Зарегистрироваться!

Как скачивать? · Что такое торрент? · Рейтинг и ограничения

Показать сообщения:    
Ответить на тему

Wikisound.org - Компрессия (2013) скачать торрент (torrent), видеоуроки, тренинги, обучающее видео и видеокурсы

Текущее время: Сегодня 07:00

Часовой пояс: GMT + 4



Вы не можете начинать темы
Вы не можете отвечать на сообщения
Вы не можете редактировать свои сообщения
Вы не можете удалять свои сообщения
Вы не можете голосовать в опросах
Вы не можете прикреплять файлы к сообщениям
Вы не можете скачивать файлы