Александр Дымный - Неорганическое моделирование в 3Ds Max (2013)

Ответить на тему
 
Автор Сообщение

Yulya ®

-Александр Дымный - Неорганическое моделирование в 3Ds Max (2013)- Автор (режиссер): Александр Дымный
Жанр: Обучающий видеокурс
Продолжительность: 05:21:30
Качество видео: PCRec
Видеокодек: AVC
Битрейт видео: ~23.976fps 2175kbps
Размер кадра: 1280x720
Аудиокодек: AAC
Битрейт аудио: 48000Hz stereo 157kbps
Описание:
Моделирование — превосходный процесс, который захватывает с первых минут. В этом курсе мы обратим интерес на важные элементы создания трудной сцены: поначалу мы станем моделировать разные строения, потом мы займемся их текстурирование, соединением в сложный проект и в конце настроим освещение нашей сцены.

Дополнительная информация:

Содержание
Раздел 1
01. Введение
02. Моделирование. Мост
03. Моделирование. Мост
04. Моделирование. Высокоэтажный дом
05. Моделирование. Высокоэтажный дом
06. Моделирование. Четырехэтажный дом
07. Моделирование. Гаражи
08. Моделирование. Пятиэтажный дом
09. Моделирование. Склады
10. Моделирование. Промышленное помещение
Раздел 2
11. Текстурирование. Мост
12. Текстурирование. Мост
13. Текстурирование. Пятиэтажный дом
14. Текстурирование. Высокоэтажный дом
15. Текстурирование. Гаражи
Раздел 3
16. Композиция сцены
17. Мелочи. Часть 1
18. Мелочи. Часть 2
Раздел 4
19. Освещение. День
20. Освещение. Ночь

MI

Общее
Полное имя : D:\Андрей\neorgan.model
Формат : MPEG-4
Идентификатор кодека : M4V
Режим общего битрейта : Переменный
Общий поток : 2347 Кбит/сек
Дата кодирования : UTC 2013-12-30 00:35:47
Дата пометки : UTC 2013-12-30 00:35:47
©TIM : 00:00:00:00
©TSC : 24000
©TSZ : 1001
Видео
Идентификатор : 1
Формат : AVC
Формат/Информация : Advanced Video Codec
Профиль формата : [url=mailto:Main@L3.1]Main@L3.1[/url]
Параметр CABAC формата : Нет
Параметр ReFrames формата : 2 кадра
Идентификатор кодека : avc1
Идентификатор кодека/Информация : Advanced Video Coding
Вид битрейта : Переменный
Битрейт : 2176 Кбит/сек
Максимальный битрейт : 2640 Кбит/сек
Ширина : 1280 пикселей
Высота : 720 пикселей
Соотношение сторон : 16:9
Режим частоты кадров : Постоянный
Частота кадров : 23,976 кадра/сек
Стандарт вещания : NTSC
Цветовое пространство : YUV
Субдискретизация насыщенности : 4:2:0
Битовая глубина : 8 бит
Тип развёртки : Прогрессивная
Бит/(Пиксели*Кадры) : 0.098
Размер потока : 14,9 Мбайт (93%)
Язык : English
Дата кодирования : UTC 2013-12-30 00:35:47
Дата пометки : UTC 2013-12-30 00:35:47
Аудио
Идентификатор : 2
Формат : AAC
Формат/Информация : Advanced Audio Codec
Профиль формата : LC
Идентификатор кодека : 40
Вид битрейта : Переменный
Битрейт : 157 Кбит/сек
Максимальный битрейт : 254 Кбит/сек
Каналы : 2 канала
Расположение каналов : Front: L R
Частота : 48,0 КГц
Метод сжатия : С потерями
Размер потока : 1,08 Мбайт (7%)
Размер потока оригинала : 1,08 Мбайт (7%)
Язык : English
Дата кодирования : UTC 2013-12-30 00:35:47
Дата пометки : UTC 2013-12-30 00:35:47
Скриншоты:
Скачать .torrent

Для того, чтобы скачать торрент-файл

Александр Дымный - Неорганическое моделирование в 3Ds Max (2013)

с нашего сайта, Вам необходимо Войти на сайт под своим логином! Если у Вас ещё нет логина, тогда Вам нужно сначала Зарегистрироваться!

Как скачивать? · Что такое торрент? · Рейтинг и ограничения

Показать сообщения:    
Ответить на тему

Александр Дымный - Неорганическое моделирование в 3Ds Max (2013) скачать торрент (torrent), видеоуроки, тренинги, обучающее видео и видеокурсы

Текущее время: Сегодня 03:07

Часовой пояс: GMT + 4



Вы не можете начинать темы
Вы не можете отвечать на сообщения
Вы не можете редактировать свои сообщения
Вы не можете удалять свои сообщения
Вы не можете голосовать в опросах
Вы не можете прикреплять файлы к сообщениям
Вы не можете скачивать файлы