Антон Агафонов - Все технические моменты соцсетей (2013)

Ответить на тему
 
Автор Сообщение

Yulya ®

-Антон Агафонов - Все технические моменты соцсетей (2013)- Автор (режиссер): Антон Агафонов
Жанр: Обучающие видеуроки
Продолжительность: 05:01:15
Качество видео: PCRec
Видеокодек: MPEG4 (AVC)
Битрейт видео: ~126 Kbps
Размер кадра: 576х360
Аудиокодек: AAC
Битрейт аудио: 96 Kbps, 2 ch
Описание:
Данный курс представляет собой исчерпывающие видео-руководства по крупнейшим соцсетям, в числе которых: Vkontakte, Одноклассники, Youtube, Twitter. Пошаговые уроки по созданию собственного аккаунта, поиску людей, публикации текстового и видео-контента и другим техническим моментам. Курс полезен как для начинающих пользователей, так и для продвинутых пользователей в качестве шпаргалки.

Содержание:

Вконтакте
Регистрация и обзор профиля
Как искать людей
Создание нового сообщества
Как назначить администратора
Настройки ленты новостей
Как делать репост
Как делать активные ссылки на друзей
Как делать геперссылки
Как делать отложенные записи (автопост)
Как сокращать ссылки
Как создавать вики страницы
Как размещать рекламу с помощью сервиса Sociate.ru
Одноклассники
Как поменять дизайн странички
Поиск людей
Создание групп
Создание мероприятий
Назначение модераторов и администраторов
Как зарегистрироваться в одноклассниках
Twitter
Как создавать и редактировать списки
Регистрация и обзор Твиттера
Поиск людей
Как делать ретвиты
Что такое хэштеги
Youtube
Как загрузить видео
Как найти ссылку на канал или видео
Как создавать плейлисты
Как подписаться на канал другого пользователя
Как добавлять видео в избранное
Как создавать видео ответы
Как поделиться видео в соцсетях
Как добавлять в контакты и отправлять сообщения
Как разместить одно видео во все видео своего канала
Как вставлять аннотации и ссылки в видео
Регистрация нового канала Youtube

MediaInfo

General
Complete name : Как вставлять аннотации и ссылки в видео.mp4
Format : MPEG-4
Format profile : Base Media / Version 2
Codec ID : mp42
File size : 13.9 MiB
Duration : 8mn 41s
Overall bit rate : 224 Kbps
Encoded date : UTC 2013-01-30 21:27:18
Tagged date : UTC 2013-01-30 21:27:18
Video
ID : 1
Format : AVC
Format/Info : Advanced Video Codec
Format profile : [url=mailto:Baseline@L2.2]Baseline@L2.2[/url]
Format settings, CABAC : No
Format settings, ReFrames : 1 frame
Codec ID : avc1
Codec ID/Info : Advanced Video Coding
Duration : 8mn 41s
Bit rate mode : Variable
Bit rate : 126 Kbps
Maximum bit rate : 1 432 Kbps
Width : 576 pixels
Height : 360 pixels
Display aspect ratio : 1.600
Frame rate mode : Constant
Frame rate : 15.000 fps
Color space : YUV
Chroma subsampling : 4:2:0
Bit depth : 8 bits
Scan type : Progressive
Bits/(Pixel*Frame) : 0.040
Stream size : 7.82 MiB (56%)
Tagged date : UTC 2013-01-30 21:27:19
Audio
ID : 2
Format : AAC
Format/Info : Advanced Audio Codec
Format profile : LC
Codec ID : 40
Duration : 8mn 41s
Bit rate mode : Variable
Bit rate : 96.0 Kbps
Maximum bit rate : 102 Kbps
Channel(s) : 2 channels
Channel positions : Front: L R
Sampling rate : 44.1 KHz
Compression mode : Lossy
Stream size : 5.97 MiB (43%)
Title : IsoMedia File Produced by Google, 5-11-2011
Encoded date : UTC 2013-01-30 21:27:19
Tagged date : UTC 2013-01-30 21:27:19
Скачать .torrent

Для того, чтобы скачать торрент-файл

Антон Агафонов - Все технические моменты соцсетей (2013)

с нашего сайта, Вам необходимо Войти на сайт под своим логином! Если у Вас ещё нет логина, тогда Вам нужно сначала Зарегистрироваться!

Как скачивать? · Что такое торрент? · Рейтинг и ограничения

Показать сообщения:    
Ответить на тему

Антон Агафонов - Все технические моменты соцсетей (2013) скачать торрент (torrent), видеоуроки, тренинги, обучающее видео и видеокурсы

Текущее время: Сегодня 14:37

Часовой пояс: GMT + 4



Вы не можете начинать темы
Вы не можете отвечать на сообщения
Вы не можете редактировать свои сообщения
Вы не можете удалять свои сообщения
Вы не можете голосовать в опросах
Вы не можете прикреплять файлы к сообщениям
Вы не можете скачивать файлы