Virtualstudy.ru - Аранжировка музыки на компьютере в любом стиле (2010)

Ответить на тему
 
Автор Сообщение

Yulya ®

-Virtualstudy.ru - Аранжировка музыки на компьютере в любом стиле (2010)- Автор (режиссер): Virtualstudy.ru
Жанр: Работа со звуком
Язык: Русский
Продолжительность: 05:28:08
Качество видео: PCRec
Видеокодек: AVC/H.264
Битрейт видео: ~541 Kbps, 5.000 fps
Размер кадра: 1024x736, 1,391
Аудиокодек: AAC
Битрейт аудио: 126 Kbps, 2 channels, 44.1 KHz
Описание: Представляем Вашему вниманию 5-ти часовой видеокурс Романа Борнысова — «Аранжировка музыки на компьютере в любом стиле», благодаря которому, шаг-за-шагом и с нуля, Вы пройдёте через весь процесс обучения аранжировке песни вместе с автором видеокурса, и приобретёте навыки, необходимые для реализации своих творческих идей!

Содержание:

Вступительный урок
Урок "Структура композиции"
Раздел I. Создание аккомпанемента
в Band-in-a-Box 2009
1. Какая работа нам предстоит в Band-in-a-Box
2. Настройка программы
3. Общее знакомство с программой
4. Предварительный выбор основного стиля
5. Создание аккордовой основы композиции:
5.1 Полезные советы и рекомендации
5.2 Аккорды 1-го куплета и припева
5.3 Аккорды 2-го и 3-го куплетов
5.4 Другие способы записи аккордов
6. Переходы, сбивки, характер исполнения аккордов (2 урока)
7. Окончательный выбор основного и дополнительных стилей
8. Создание смешаннный стилей и их смена по ходу композиции
9. Итоги по Band-in-a-Box и экспорт миди-дорожек
Глава II. Аранжировка в Cubase 5
1. Какая работа нам предстоит в Cubase5
2. Импорт аккомпанемента из Band-in-a-Box. Подготовка
дорожек для эффективной работы в Cubase
3. Подбираем для аккомпанемента качественные VSTi
и настраиваем звук:
3.1 Бас, пэд, ритм
3.2 Ударная установка
4. Редактируем партии аккомпанемента
5. Партия соло и дополнительные инструменты 1-го куплета:
5.1 Партия соло. Выбор и настройка инструмента,
запись и характер исполнения
5.2 Расставляем акценты в партии ударных
5.3 Пишем партии дополнительных инструментов
6. Партия соло и дополнительные инструменты припева:
6.1 Партия соло, выбор и настройка инструмента,
запись и характер исполнения
6.2 Расставляем акценты в партии ударных
6.3 Пишем партии дополнительных инструментов
7. Партия соло и дополнительные инструменты припева:
7.1 Партия соло, выбор и настройка инструмента,
запись и характер исполнения
7.2 Расставляем акценты в партии ударных.
Пишем партии дополнительных инструментов
8. Партия соло-инструментов 3-го куплета
9. Создаем вступление композиции
10. Создание коды (концовки):
10.1 Автоматизация Atmosphere и Trilogy.
Эффект с помощью автоматизации фильтра
10.2 Завершаем создание коды
11. Последние штрихи в аранжировке. Итоги

MediaInfo:

General
Complete name : D:\Virtualstudy.ru - Аранжировка музыки на компьютере в любом стиле\AutoPlay\Videos\Part1\4\4.mp4
Format : MPEG-4
Format profile : Base Media / Version 2
Codec ID : mp42
File size : 52.9 MiB
Duration : 11mn 4s
Overall bit rate : 668 Kbps
Encoded date : UTC 2012-02-01 08:36:16
Tagged date : UTC 2012-02-01 08:36:16
Video
ID : 1
Format : AVC
Format/Info : Advanced Video Codec
Format profile : [url=mailto:High@L3.1]High@L3.1[/url]
Format settings, CABAC : Yes
Format settings, ReFrames : 4 frames
Codec ID : avc1
Codec ID/Info : Advanced Video Coding
Duration : 11mn 4s
Source duration : 11mn 4s
Bit rate mode : Variable
Bit rate : 541 Kbps
Width : 1 024 pixels
Height : 736 pixels
Display aspect ratio : 1.391
Frame rate mode : Constant
Frame rate : 5.000 fps
Color space : YUV
Chroma subsampling : 4:2:0
Bit depth : 8 bits
Scan type : Progressive
Bits/(Pixel*Frame) : 0.143
Stream size : 42.8 MiB (81%)
Source stream size : 42.8 MiB (81%)
Language : English
Encoded date : UTC 2012-02-01 08:36:16
Tagged date : UTC 2012-02-01 08:36:16
mdhd_Duration : 664822
Color primaries : BT.709
Transfer characteristics : BT.709
Matrix coefficients : BT.709
Audio
ID : 2
Format : AAC
Format/Info : Advanced Audio Codec
Format profile : LC
Codec ID : 40
Duration : 11mn 4s
Source duration : 11mn 4s
Bit rate mode : Constant
Bit rate : 126 Kbps
Channel(s) : 2 channels
Channel positions : Front: L R
Sampling rate : 44.1 KHz
Compression mode : Lossy
Stream size : 9.95 MiB (19%)
Source stream size : 9.95 MiB (19%)
Language : English
Encoded date : UTC 2012-02-01 08:36:16
Tagged date : UTC 2012-02-01 08:36:16
mdhd_Duration : 664690
Скриншоты:
Скачать .torrent

Для того, чтобы скачать торрент-файл

Virtualstudy.ru - Аранжировка музыки на компьютере в любом стиле (2010)

с нашего сайта, Вам необходимо Войти на сайт под своим логином! Если у Вас ещё нет логина, тогда Вам нужно сначала Зарегистрироваться!

Как скачивать? · Что такое торрент? · Рейтинг и ограничения

Показать сообщения:    
Ответить на тему

Virtualstudy.ru - Аранжировка музыки на компьютере в любом стиле (2010) скачать торрент (torrent), видеоуроки, тренинги, обучающее видео и видеокурсы

Текущее время: Сегодня 13:41

Часовой пояс: GMT + 4



Вы не можете начинать темы
Вы не можете отвечать на сообщения
Вы не можете редактировать свои сообщения
Вы не можете удалять свои сообщения
Вы не можете голосовать в опросах
Вы не можете прикреплять файлы к сообщениям
Вы не можете скачивать файлы