TheTunes.Ru - Синтез в Sylenth (2013)

Ответить на тему
 
Автор Сообщение

Yulya ®

-TheTunes.Ru - Синтез в Sylenth (2013)- Автор (режиссер): TheTunes.Ru
Жанр: Работа со звуком
Язык: Русский
Продолжительность: 03:56:57
Качество видео: PCRec
Видеокодек: AVC/H.264
Битрейт видео: ~811 Kbps, 10.000 fps
Размер кадра: 1600x900, 16:9
Аудиокодек: AAC
Битрейт аудио: 256 Kbps, 2 channels, 44.1 KHz
Описание: Что даст вам этот курс?
- Вы полностью изучите устройство и работу с одним из самых популярных синтезаторов Sylenth1.
- Вы разберетесь, наконец-то, с процессом синтеза.
- Вы сможете быстро переносить идеи из головы в проект, пока они не улетучились.
- Перестанете тратить время в поисках нужного звука, копаясь в сотнях библиотек семплов.
- Вы сможете получать уникальные и интересные звуки, делая свою музыку не такой, как у всех.

Дополнительная информация:

- Вы перестанете быть «пресетным» музыкантом, который звучит также, как и все вокруг.
- Ваши шансы на успех значительно вырастут, ведь вы cможете формировать свое уникальное звучание. Вспомним Benny Benassi, Arty, Moonbeam и многих других, кто добился успеха благодаря своему уникальному звучанию.
- Процесс лееринга для вас станет более логичным и понятным, и как следствие звучание треков станет жирнее, чище и ярче.
- Вы с легкостью сможете крутить пресеты в нужную именно вам "сторону".
- Зная синтез, вы с легкостью разберетесь с любым аналоговым синтезатором.

Содержание:

01. Введение
02. О синтезаторе
03. Общее устройство
04. Устройство верхней панели
05. Управление ручками и регуляторами
06. Работа с пресетами и банками патчей
07. Устройство осцилляторов
08. Огибающие громкости
09. Фильтры осцилляторов
10. Filter Control
11. Модуляция MOD ENV
12. Модуляция LFO
13. Модуляция MISC
14. Блок клавиатуры
15. Mixer
16. Блок эффектов
17. Arpeggiator
18. Distortion
19. Phaser
20. Chorus
21. EQ
22. Delay
23. Reverb
24. Compressor
25. Введение в практику
26. Практика. Синтез Pluck Lead
27. Практика. Синтез баса и применение Velocity
28. Практика. Синтез pad noise
29. Практика. Синтез бочки
30. Практика. Синтез соло инструмента
31. Практика. Синтез мощного Saw Bass
32. Практика. Синтез Psy Bass
33. Практика. Синтез хета
34. Практика. Cинтез Rise Up эффекта

MediaInfo:

General
Complete name : D:\TheTunes.Ru - Синтез в Sylenth\01. Введение.mp4
Format : MPEG-4
Format profile : Base Media / Version 2
Codec ID : mp42
File size : 29.3 MiB
Duration : 4mn 43s
Overall bit rate mode : Variable
Overall bit rate : 867 Kbps
Encoded date : UTC 2013-08-28 10:12:19
Tagged date : UTC 2013-08-28 10:12:19
Video
ID : 1
Format : AVC
Format/Info : Advanced Video Codec
Format profile : [url=mailto:Baseline@L4.0]Baseline@L4.0[/url]
Format settings, CABAC : No
Format settings, ReFrames : 3 frames
Format settings, GOP : M=1, N=50
Codec ID : avc1
Codec ID/Info : Advanced Video Coding
Duration : 4mn 43s
Bit rate mode : Variable
Bit rate : 811 Kbps
Width : 1 600 pixels
Height : 900 pixels
Display aspect ratio : 16:9
Frame rate mode : Constant
Frame rate : 10.000 fps
Color space : YUV
Chroma subsampling : 4:2:0
Bit depth : 8 bits
Scan type : Progressive
Bits/(Pixel*Frame) : 0.056
Stream size : 27.4 MiB (94%)
Language : English
Encoded date : UTC 2013-08-28 10:12:20
Tagged date : UTC 2013-08-28 10:12:20
Audio
ID : 2
Format : AAC
Format/Info : Advanced Audio Codec
Format profile : LC
Codec ID : 40
Duration : 4mn 43s
Source duration : 4mn 43s
Bit rate mode : Variable
Bit rate : 53.7 Kbps
Maximum bit rate : 256 Kbps
Channel(s) : 2 channels
Channel positions : Front: L R
Sampling rate : 44.1 KHz
Compression mode : Lossy
Stream size : 1.82 MiB (6%)
Source stream size : 1.82 MiB (6%)
Language : English
Encoded date : UTC 2013-08-28 10:12:20
Tagged date : UTC 2013-08-28 10:12:20
mdhd_Duration : 283841
Скриншоты:
Скачать .torrent

Для того, чтобы скачать торрент-файл

TheTunes.Ru - Синтез в Sylenth (2013)

с нашего сайта, Вам необходимо Войти на сайт под своим логином! Если у Вас ещё нет логина, тогда Вам нужно сначала Зарегистрироваться!

Как скачивать? · Что такое торрент? · Рейтинг и ограничения

Показать сообщения:    
Ответить на тему

TheTunes.Ru - Синтез в Sylenth (2013) скачать торрент (torrent), видеоуроки, тренинги, обучающее видео и видеокурсы

Текущее время: Сегодня 02:32

Часовой пояс: GMT + 4



Вы не можете начинать темы
Вы не можете отвечать на сообщения
Вы не можете редактировать свои сообщения
Вы не можете удалять свои сообщения
Вы не можете голосовать в опросах
Вы не можете прикреплять файлы к сообщениям
Вы не можете скачивать файлы