TheTunes.Ru - Частотная обработка (2013)

Ответить на тему
 
Автор Сообщение

Yulya ®

-TheTunes.Ru - Частотная обработка (2013)- Автор (режиссер): TheTunes.Ru
Жанр: Работа со звуком
Язык: Русский
Продолжительность: 08:19:31
Качество видео: PCRec
Видеокодек: AVC/H.264
Битрейт видео: ~142 Kbps, 24.000 fps
Размер кадра: 1600x900, 16:9
Аудиокодек: AAC
Битрейт аудио: ~318 Kbps, 2 channels, 44.1 KHz
Описание: 1. Вы получите результаты уже в процессе изучения курса.
Да, именно так - РЕЗУЛЬТАТЫ СРАЗУ! Если Вы будете сразу применять то, чему мы учим в курсе - Ваши треки сразу начнут звучать значительно лучше! Конечно, практику никто не отменял. И чем больше вы будете практиковать навыки, полученные из курса - тем лучше будут звучать Ваши работы. Но первые результаты - Вы услышите уже в процессе изучения курса. Это, наверное, главная особенность.

Дополнительная информация:

2. Только действительно необходимая информация.
Если Вы изучали другие наши курсы, ты Вы уже знаете, что мы даем только действительно нужную информацию. Данный курс не стал исключением. За 8 с лишним часов, которые длится курс - Вы получите ВСЮ необходимую информацию. И при этом никакой воды!
3. Курс разбит на два блока "Теория" и "Практика".
Это как раз тот самый комплексный подход, о котором шла речь выше. Сначала Вы получаете всю необходимую теоретическую базу, чтобы затем на практике Вы уже понимали, для чего делается то или иное действие. Курс записан на двух дисках. На первом находится «Теория» - это диск заменит учебники и поможет легко и наглядно разобраться с природой звука, инструментами обработки и принципами их работы. На втором «Практика» - где Вы изучите практическое применение частотной обработки.

Содержание:

Теория
01. Вводное занятие
02. Частота звуковой волны
03. Длина звуковой волны
04. Форма звуковой волны
05. Восприятие звука человеком
06. Особенности высоких частот
07. Особенности средних частот
08. Особенности низких частот
09. Основной тон и обертона
10. Спектроанализаторы и осцилоскопы
11. Эквализация
12. Эквалайзеры
13. Советы при эквализации
14. Перегруз, как процесс
15. Эффекты перегруза
16. Сатурация и сатураторы
17. Эксайтирование
18. Эксайтеры
Практика
01. Предисловие
02. Удаление ненужных инструментам частот
03. Поиск и удаление резонирующих частот
04. Поиск нужных частот
05. Удаление частотных конфликтов
06_Применение эффектов перегруза и сатурации на перкуссии
07. Применение эффектов перегруза и сатурации на басах
08. Применение эффектов перегруза и сатурации на лидах
09. Применение эксайтеров
10. Применение mid-side эквализации
11. Практика применения частотной обработки. Пример 1
12. Практика применения частотной обработки. Пример 2

MediaInfo:

General
Complete name : E:\TORRENTS.RU\TheTunes.Ru - Частотная обработка\1. Теория\02. Частота звуковой волны.mp4
Format : MPEG-4
Format profile : Base Media / Version 2
Codec ID : mp42
File size : 35.2 MiB
Duration : 10mn 38s
Overall bit rate mode : Variable
Overall bit rate : 462 Kbps
Encoded date : UTC 2013-05-16 12:58:34
Tagged date : UTC 2013-05-16 12:58:34
Video
ID : 1
Format : AVC
Format/Info : Advanced Video Codec
Format profile : [url=mailto:Baseline@L4.0]Baseline@L4.0[/url]
Format settings, CABAC : No
Format settings, ReFrames : 3 frames
Codec ID : avc1
Codec ID/Info : Advanced Video Coding
Duration : 10mn 38s
Source duration : 10mn 37s
Bit rate mode : Variable
Bit rate : 142 Kbps
Width : 1 600 pixels
Height : 900 pixels
Display aspect ratio : 16:9
Frame rate mode : Variable
Frame rate : 24.000 fps
Minimum frame rate : 24.000 fps
Maximum frame rate : 24.024 fps
Color space : YUV
Chroma subsampling : 4:2:0
Bit depth : 8 bits
Scan type : Progressive
Bits/(Pixel*Frame) : 0.004
Stream size : 10.8 MiB (31%)
Source stream size : 10.8 MiB (31%)
Language : English
Encoded date : UTC 2013-05-16 12:58:37
Tagged date : UTC 2013-05-16 12:58:37
mdhd_Duration : 638000
Audio
ID : 2
Format : AAC
Format/Info : Advanced Audio Codec
Format profile : LC
Codec ID : 40
Duration : 10mn 38s
Source duration : 10mn 38s
Bit rate mode : Variable
Bit rate : 318 Kbps
Maximum bit rate : 450 Kbps
Channel(s) : 2 channels
Channel positions : Front: L R
Sampling rate : 44.1 KHz
Compression mode : Lossy
Stream size : 24.2 MiB (69%)
Source stream size : 24.2 MiB (69%)
Language : English
Encoded date : UTC 2013-05-16 12:58:37
Tagged date : UTC 2013-05-16 12:58:37
mdhd_Duration : 638038
Скриншоты:
Скачать .torrent

Для того, чтобы скачать торрент-файл

TheTunes.Ru - Частотная обработка (2013)

с нашего сайта, Вам необходимо Войти на сайт под своим логином! Если у Вас ещё нет логина, тогда Вам нужно сначала Зарегистрироваться!

Как скачивать? · Что такое торрент? · Рейтинг и ограничения

Показать сообщения:    
Ответить на тему

TheTunes.Ru - Частотная обработка (2013) скачать торрент (torrent), видеоуроки, тренинги, обучающее видео и видеокурсы

Текущее время: Сегодня 02:55

Часовой пояс: GMT + 4



Вы не можете начинать темы
Вы не можете отвечать на сообщения
Вы не можете редактировать свои сообщения
Вы не можете удалять свои сообщения
Вы не можете голосовать в опросах
Вы не можете прикреплять файлы к сообщениям
Вы не можете скачивать файлы