Zwook.ru - Как создается законченный трек? (2012)

Ответить на тему
 
Автор Сообщение

Yulya ®

-Zwook.ru - Как создается законченный трек? (2012)- Автор (режиссер): Zwook.ru
Жанр: Работа со звуком
Язык: Русский
Продолжительность: 16:08:48
Качество видео: PCRec
Видеокодек: AVC/H.264
Битрейт видео: ~1 859 Kbps, 29.970 fps
Размер кадра: 1280x720, 16:9
Аудиокодек: AAC
Битрейт аудио: 192 Kbps, 2 channels, 44.1 KHz
Описание: Смотри на создание трека шаг за шагом, поэтапная схема создания трека.
Узнай и примени реальные приемы композиции и аранжировки трека.
За 13 часов получи секреты от маэстро, которые нарабатывались годами.
Только реально проверенные на практике фишки и техники.
Масса рабочих приемов: проработка элементов трека, синтез, программирование ударных, обработка звука.
Легкая дружеская подача материала.

Содержание:

Часть 1 - Базовый Курс
1. Подготовительный этап
2. Основы аранжировки
3. Учимся делать бас
4. Создание мелодических партий. Часть 1
4. Создание мелодических партий. Часть 2
5. Проработка элементов и переходов. Часть 1
5. Проработка элементов и переходов. Часть 2
7. Эффекты и автоматизация
8. Собираем все вместе + делаем Edit Rmx
9. IDM/экспериментальные ударные
Дополнительные материалы:
1. Ударные. Базовый урок
2. Ударные. Расширенный урок
Часть 2 - Создаем трек
1. Introduction
2. Грув и элементы
3. Мелодика и секвенции
4. Создаем вступление
5. Развитие и атмосфера
6. Создаем первую тему
7. Создаем вторую тему и аутро
8. Итоги, советы, фишки

MediaInfo:

General
Complete name : H:\Фильмы\Zwook.ru - Как создается законченный трек\AutoPlay\Videos\1.1_podg_etap_zwook.ru.mp4
Format : MPEG-4
Format profile : Base Media / Version 2
Codec ID : mp42
File size : 257 MiB
Duration : 17mn 28s
Overall bit rate : 2 056 Kbps
Encoded date : UTC 2012-01-12 14:03:21
Tagged date : UTC 2013-03-13 14:57:05
Video
ID : 2
Format : AVC
Format/Info : Advanced Video Codec
Format profile : [url=mailto:High@L4.0]High@L4.0[/url]
Format settings, CABAC : Yes
Format settings, ReFrames : 2 frames
Format settings, GOP : M=2, N=15
Muxing mode : Container profile=Baseline@3.1
Codec ID : avc1
Codec ID/Info : Advanced Video Coding
Duration : 17mn 28s
Bit rate mode : Variable
Bit rate : 1 859 Kbps
Width : 1 280 pixels
Height : 720 pixels
Display aspect ratio : 16:9
Frame rate mode : Constant
Frame rate : 29.970 fps
Color space : YUV
Chroma subsampling : 4:2:0
Bit depth : 8 bits
Scan type : Progressive
Bits/(Pixel*Frame) : 0.067
Stream size : 232 MiB (90%)
Language : English
Encoded date : UTC 2012-01-12 14:03:21
Tagged date : UTC 2012-01-12 14:03:21
Audio
ID : 1
Format : AAC
Format/Info : Advanced Audio Codec
Format version : Version 4
Format profile : LC
Format settings, SBR : No
Codec ID : 40
Duration : 17mn 28s
Bit rate mode : Constant
Bit rate : 192 Kbps
Channel(s) : 2 channels
Channel positions : Front: L R
Sampling rate : 44.1 KHz
Stream size : 24.0 MiB (9%)
Language : English
Encoded date : UTC 2012-01-12 14:03:21
Tagged date : UTC 2012-01-12 14:03:21
Скриншоты:
Скачать .torrent

Для того, чтобы скачать торрент-файл

Zwook.ru - Как создается законченный трек? (2012)

с нашего сайта, Вам необходимо Войти на сайт под своим логином! Если у Вас ещё нет логина, тогда Вам нужно сначала Зарегистрироваться!

Как скачивать? · Что такое торрент? · Рейтинг и ограничения

Показать сообщения:    
Ответить на тему

Zwook.ru - Как создается законченный трек? (2012) скачать торрент (torrent), видеоуроки, тренинги, обучающее видео и видеокурсы

Текущее время: Сегодня 02:55

Часовой пояс: GMT + 4



Вы не можете начинать темы
Вы не можете отвечать на сообщения
Вы не можете редактировать свои сообщения
Вы не можете удалять свои сообщения
Вы не можете голосовать в опросах
Вы не можете прикреплять файлы к сообщениям
Вы не можете скачивать файлы