Даниил Волосатов - Мой первый дизайн сайта (2013)

Ответить на тему
 
Автор Сообщение

Yulya ®

-Даниил Волосатов - Мой первый дизайн сайта (2013)- Автор (режиссер): Даниил Волосатов
Жанр: Photoshop, Создание сайта, Дизайн
Продолжительность: 5:43:00
Качество видео: PCRec
Видеокодек: avc1
Битрейт видео: ~1 254 Kbps
Размер кадра: 946 x 650
Аудиокодек: AAC
Битрейт аудио: 213 Kbps, 2 Ch, 44.1 KHz
Описание:
Этот курс задумывался как полноценное пособие для начинающих дизайнеров для того что бы каждый смог научиться создавать оригинальный и
качественный дизайн с нуля. В видеокурсе «Мой первый дизайн сайта» автор собрал все интересующие вопросы и знания, основанные на собственном многолетнем опыте.

Доп. инфо:

Процесс обучения делиться на два этапа:
Теоретический
В каждом разделе есть теоретический урок – живое видео, в котором на листе бумаги придумываем концепт страницы.
Практический
А в практической части притворим концепт в жизнь при помощи Photoshop. И полученный дизайн после верстки можно залить на хостинг.
Содержание
Главная
Главная: придумываем дизайн
Фон и шапка
Разделы
Популярное на сайте и отзывы
Два специальных предложения
Форма подписки
Копирайты
Каталог товаров
Каталог товаров – придумываем дизайн(продолжительность 12:54)
Фон и шапка (продолжительность 17:52)
Вещи (продолжительность 12:44)
Навигация и о разделе (продолжительность 10:42)
Вертикальное меню (продолжительность 8:32)
Страница товара
Страница товара – придумываем дизайн
Фон и путь по сайту
Все о товаре
Комментарии
Состав корзины
Состав корзины – придумываем дизайн
Наполняем страницу с корзиной часть 1
Наполняем страницу с корзиной часть 2
Авторизация
Авторизация – придумываем дизайн
Авторизация: наполняем
Доставка и оплата
Доставка и оплата. Работаем над дизайном.
Заканчиваем с корзиной
Личный кабинет
Личный кабинет: придумываем дизайн.
Личный кабинет: рисуем.
Отзывы
Отзывы: придумываем дизайн.
Первый отзыв.
Остальные отзывы.
Вход
Вход: придумываем дизайн.
Вход: переделываем готовый PSD исходник.
Регистрация
Регистрация: придумываем дизайн.
Регистрация: переделываем готовый PSD исходник.
Бонусы
«Золотая коллекция веб-дизайнера».
«Как подбирать цвета для сайта».
«Шрифты в веб-дизайне».

mediainfo

General
Complete name : D:\Pervyi dizain saita\files\7\01\7_0.mp4
Format : MPEG-4
Format profile : Base Media / Version 2
Codec ID : mp42
File size : 50.1 MiB
Duration : 4mn 43s
Overall bit rate mode : Variable
Overall bit rate : 1 483 Kbps
Encoded date : UTC 2013-03-27 05:08:22
Tagged date : UTC 2013-03-27 05:36:27
Video
ID : 1
Format : AVC
Format/Info : Advanced Video Codec
Format profile : [url=mailto:Main@L3.1]Main@L3.1[/url]
Format settings, CABAC : Yes
Format settings, ReFrames : 5 frames
Codec ID : avc1
Codec ID/Info : Advanced Video Coding
Duration : 4mn 43s
Bit rate : 1 222 Kbps
Width : 946 pixels
Height : 650 pixels
Display aspect ratio : 3:2
Frame rate mode : Constant
Frame rate : 30.000 fps
Color space : YUV
Chroma subsampling : 4:2:0
Bit depth : 8 bits
Scan type : Progressive
Bits/(Pixel*Frame) : 0.066
Stream size : 41.3 MiB (82%)
Encoded date : UTC 2013-03-27 05:08:22
Tagged date : UTC 2013-03-27 05:36:27
Color primaries : BT.709
Transfer characteristics : BT.709
Matrix coefficients : BT.601
Audio
ID : 2
Format : AAC
Format/Info : Advanced Audio Codec
Format profile : LC
Codec ID : 40
Duration : 4mn 43s
Bit rate mode : Variable
Bit rate : 256 Kbps
Maximum bit rate : 449 Kbps
Channel(s) : 2 channels
Channel positions : Front: L R
Sampling rate : 44.1 KHz
Compression mode : Lossy
Stream size : 8.66 MiB (17%)
Encoded date : UTC 2013-03-27 05:08:22
Tagged date : UTC 2013-03-27 05:09:02
-Скриншоты:
Скачать .torrent

Для того, чтобы скачать торрент-файл

Даниил Волосатов - Мой первый дизайн сайта (2013)

с нашего сайта, Вам необходимо Войти на сайт под своим логином! Если у Вас ещё нет логина, тогда Вам нужно сначала Зарегистрироваться!

Как скачивать? · Что такое торрент? · Рейтинг и ограничения

Показать сообщения:    
Ответить на тему

Даниил Волосатов - Мой первый дизайн сайта (2013) скачать торрент (torrent), видеоуроки, тренинги, обучающее видео и видеокурсы

Текущее время: Сегодня 15:04

Часовой пояс: GMT + 4



Вы не можете начинать темы
Вы не можете отвечать на сообщения
Вы не можете редактировать свои сообщения
Вы не можете удалять свои сообщения
Вы не можете голосовать в опросах
Вы не можете прикреплять файлы к сообщениям
Вы не можете скачивать файлы