Роман Кротов - Построение сложных отчетов в 1С (2013)

Ответить на тему
 
Автор Сообщение

Yulya ®

-Роман Кротов - Построение сложных отчетов в 1С (2013) - Автор (режиссер): Роман Кротов
Название: Построение сложных отчетов в 1С
Год выпуска: 2013
Жанр: Отчет
Продолжительность: 08:15:44
Качество видео: PCRec
Видеокодек: AVC
Битрейт видео: ~119 kb/s, 10,000 FPS
Размер кадра: 1280x720,1280x688
Аудиокодек: MP2
Битрейт аудио: 96,0 kb/s (CBR), 2 Ch, 44100 Hz
Описание:
Этот видеокурс решает проблему быстрого обучения построению достаточно сложных отчетов.
В процессе прохождения этого видеокурса:
  • Вы поймете принцип генерации отчета и процессы, которые происходят в 1С при создании любого отчета;
  • Вы поймете все тонкости основных понятий, которые нужны Вам для создания любых видов отчетов и диаграмм;
  • Как сделать отчет нужного Вам вида, формы и оформления;
  • Как расположить, отфильтровать, сгруппировать и отсортировать нужные Вам данные;
  • Вы научитесь программно формировать отчеты из любого места конфигурации и тд.

Программа курса

Введение
  • Первый отчет. Основы
  • Первый отчет. Настройка
  • Устройство Схемы Компоновки Данных
Теория
  • Работа с полями
  • Ресурсы отчета
  • Параметры в отчете
  • Макеты
  • Настройка отчета
  • Упорядочивание полей и группировок
  • Отбор
  • Настройка группировок
  • Расположение ресурсов в отчете
  • Настройка диаграмм
  • Условное оформление
Практика
  • Набор данных - запрос
  • Два связанных набора данных
  • Связь данных в самом запросе
  • Набор данных - объект
  • Набор данных - объединение
  • Диаграмма
  • Вложенный отчет
  • Вывод результата в сводную таблицу
  • Детальные настройки отчета
  • Ввод параметров прямо в форме отчета
  • Запуск отчета программно
  • Периодичность двух виртуальных таблиц
  • Задаем настройки по умолчанию
  • Расширенный отчет по продажам
Фишки и тонкости
  • Получение итогов по датам
  • Характеристики в отчетах
  • Категории и иерархия
  • Связи наборов данных
  • Расчет итогов
  • Нескольких схем компоновки в одном отчете
  • Многоязычные отчеты
  • Программное формирование отчета
  • Правила создания грамотных отчетов
Заключение

MediaInfo:

Общее
Полное имя : D:\Загрузки\Report\Report_1C\AutoPlay\Videos\03_praktika\01_nabor_zapros.mp4
Формат : MPEG-4
Профиль формата : Base Media
Идентификатор кодека : isom
Размер файла : 9,39 Мбайт
Продолжительность : 6 м. 0 с.
Общий поток : 219 Кбит/сек
Дата кодирования : UTC 2013-10-23 21:15:58
Дата пометки : UTC 2013-10-23 21:15:58
Программа кодирования : Lavf55.8.103
Видео
Идентификатор : 1
Формат : AVC
Формат/Информация : Advanced Video Codec
Профиль формата : [url=mailto:High@L3.1]High@L3.1[/url]
Параметр CABAC формата : Да
Параметр ReFrames формата : 4 кадра
Идентификатор кодека : avc1
Идентификатор кодека/Информация : Advanced Video Coding
Продолжительность : 6 м. 0 с.
Битрейт : 119 Кбит/сек
Ширина : 1280 пикселей
Высота : 720 пикселей
Соотношение сторон : 16:9
Режим частоты кадров : Постоянный
Частота кадров : 10,000 кадров/сек
Цветовое пространство : YUV
Субдискретизация насыщенности : 4:2:0
Битовая глубина : 8 бит
Тип развёртки : Прогрессивная
Бит/(Пиксели*Кадры) : 0.013
Размер потока : 5,12 Мбайт (55%)
Библиотека кодирования : x264 core 130 r2274bm c832fe9
Настройки программы : cabac=1 / ref=3 / deblock=1:0:0 / analyse=0x3:0x113 / me=hex / subme=7 / psy=1 / psy_rd=1.00:0.00 / mixed_ref=1 / me_range=16 / chroma_me=1 / trellis=1 / 8x8dct=1 / cqm=0 / deadzone=21,11 / fast_pskip=1 / chroma_qp_offset=-2 / threads=9 / lookahead_threads=1 / sliced_threads=0 / nr=0 / decimate=1 / interlaced=0 / bluray_compat=0 / constrained_intra=0 / bframes=3 / b_pyramid=2 / b_adapt=1 / b_bias=0 / direct=1 / weightb=1 / open_gop=0 / weightp=2 / keyint=250 / keyint_min=9 / scenecut=40 / intra_refresh=0 / rc=cqp / mbtree=0 / qp=15 / ip_ratio=1.40 / pb_ratio=1.30 / aq=0
Дата кодирования : UTC 2013-10-23 21:15:58
Дата пометки : UTC 2013-10-23 21:15:58
Аудио
Идентификатор : 2
Формат : MPEG Audio
Версия формата : Version 1
Профиль формата : Layer 3
Режим : Joint stereo
Расширение режима : Intensity Stereo + MS Stereo
Идентификатор кодека : 6B
Продолжительность : 6 м. 0 с.
Вид битрейта : Постоянный
Битрейт : 96,0 Кбит/сек
Каналы : 2 канала
Частота : 44,1 КГц
Метод сжатия : С потерями
Размер потока : 4,11 Мбайт (44%)
Дата кодирования : UTC 2013-10-23 21:15:58
Дата пометки : UTC 2013-10-23 21:15:58
Скриншоты:
Скачать .torrent

Для того, чтобы скачать торрент-файл

Роман Кротов - Построение сложных отчетов в 1С (2013)

с нашего сайта, Вам необходимо Войти на сайт под своим логином! Если у Вас ещё нет логина, тогда Вам нужно сначала Зарегистрироваться!

Как скачивать? · Что такое торрент? · Рейтинг и ограничения

Показать сообщения:    
Ответить на тему

Роман Кротов - Построение сложных отчетов в 1С (2013) скачать торрент (torrent), видеоуроки, тренинги, обучающее видео и видеокурсы

Текущее время: Сегодня 18:01

Часовой пояс: GMT + 4



Вы не можете начинать темы
Вы не можете отвечать на сообщения
Вы не можете редактировать свои сообщения
Вы не можете удалять свои сообщения
Вы не можете голосовать в опросах
Вы не можете прикреплять файлы к сообщениям
Вы не можете скачивать файлы