Последнее из V.I.P.-раздела

09-Дек-19 05:49
09-Дек-19 05:47
09-Дек-19 05:45
08-Дек-19 05:50
08-Дек-19 05:49
08-Дек-19 05:48
08-Дек-19 05:46
08-Дек-19 05:45
08-Дек-19 05:44
08-Дек-19 05:43

Александр Ипполитов - Lightroom - незаменимый инструмент современного фотографа (2013)

Ответить на тему
 
Автор Сообщение

Yulya ®

-Александр Ипполитов - Lightroom - незаменимый инструмент современного фотографа (2013)- Автор (режиссер): Александр Ипполитов
Название: Lightroom - незаменимый инструмент современного фотографа
Год выпуска: 2013
Жанр: Обработка фото
Продолжительность: 03:27:05
Качество видео: PCRec
Видеокодек: AVC
Битрейт видео: ~347 kb/s, 10,000 FPS
Размер кадра: 1280x720
Аудиокодек: AAC
Битрейт аудио: 121 kb/s (CBR), 2 Ch, 44100 Hz
Описание:
Хотите научиться продуктивно, быстро и профессионально обрабатывать тонны фотографий в Lightroom?
Я научу вас, и дам только нужные знания не забивая голову водой и дополнительными практически не используемыми функциями!

Программа курса

Глава 1.
› 01. Введение. Принцип работы Lightroom.
› 02. Скачивание и установка Lightroom с официального сайта (руссификация).
› 03. Знакомство с интерфейсом программы
Глава 2: Организация, отбор и подготовка фотографий к обработке.
› 04. Импорт фотографий в Lightroom
› 05. Автоматический импорт.
› 06. Что такое КАТАЛОГ в Lightroom.
› 07. Навигация по фотографиям
› 08. Виды меток фотографий.
› 09. Разновидности коллекций, их создание и применение.
› 10. Отбор и сортировка фотографий.
› 11. Удаление и восстановление фотографий.
› 12. Пакетное переименование фотографий.
› 13. Отбор фотографий методом сравнения и исключения.
› 14. Группировка фотографий в стэки.
› 15. Как посмотреть параметры фотографии.
› 16. Использование и редактирование метаданных.
› 17. Использование ключевых слов.
› 18. Использование инструмента "рисование".
Глава 3: Обработка фотографий в Lightroom.
› 19. Знакомство с модулем коррекции.
› 20. Гистограмма в Lightroom.
› 21. Корректировка баланса белого.
› 22. Корректировка тона (экспозиция и контрастность).
› 23. Корректировка тона (света и точка белого, тени и точка черного).
› 24. Инструмент "четкость".
› 25. Инструменты "сочность" и "насыщенность".
› 26. Корректировка тона (тоновая кривая).
› 27. Инструменты "оттенок, насыщенность, светлота / цвет"
› 28. Инструмент "ч/б".
› 29. Раздельное тонирование.
› 30. Удаление шумов, повышение резкости.
› 31. Исправление искажений объектива.
› 32. Вкладка "эффекты".
› 33. Вкладка "калибровка камеры".
› 34. Инструмент "кадрирование".
› 35. Инструмент ретуши "удаление пятен".
› 36. Инструмент "удаление красных глаз".
› 37. Градиентный и радиальный фильтры.
› 38. Инструмент "кисть коррекции".
› 39. Виртуальная копия фотографий.
› 40. Быстрая коррекция в модуле "библиотека".
Глава 4: Практическая обработка фотографий в Lightroom.
Локальная ретушь портретов в Lightroom:
› 41. Обработка глаз.
› 42. Обработка ресниц, бровей, волос, губ.
› 43. Обработка зубов.
› 44. Удаление дефектов кожи.
› 45. Обработка кожи.
Цветовая и тональная коррекция портретов:
› 46. Обработка женского портрета. Урок 1.
› 47. Обработка женского портрета. Урок 2.
› 48. Обработка женского портрета. Урок 3.
› 49. Обработка женского портрета. Урок 4.
› 50. Обработка жанрового портрета. Урок 5. 51 Обработка фотографий в черно-белое.
Цветовая и тональная коррекция пейзажей:
› 52. Обработка пейзажей. Урок 1.
› 53. Обработка пейзажей. Урок 2.
› 54. Обработка пейзажей. Урок 3.
› 55. Обработка пейзажей. Урок 4.
› 56. Обработка пейзажей. Урок 5.
› 57. Обработка пейзажей. Урок 6.
› 58. Обработка пейзажей. Урок 7.
› 59. Обработка пейзажей. Урок 8.
› 60. Обработка пейзажей. 2 "настроения" одной фотографии. Урок 9.
Глава 5: Пакетная обработка фотографий.
› 61. Пакетная обработка фотографий. Урок 1.
› 62. Пакетная обработка фотографий. Урок 2.
Глава 6: Использование пресетов в Lightroom.
› 63. Создание пресетов.
› 64. Импорт/Экспорт пресетов.
Глава 7: Модуль "Карты"
› 65. Привязка фотографий к Google картам.
Глава 8: Экспорт обработанных фотографий.
› 66. Экспорт фотографий на жесткий диск.
› 67. Экспорт фотографий напрямую в социальные сети.
› 68. Подключение "водяного знака" при экспорте.
Глава 9: Печать фотографий.
› 69. Подготовка фотографий к печати.
› 70. Печать фотографий с использованием шаблонов.

MediaInfo:

Общее
Полное имя : D:\Загрузки\lightroom kurs\Курс\tut\001\001.mp4
Формат : MPEG-4
Профиль формата : Base Media / Version 2
Идентификатор кодека : mp42
Размер файла : 8,38 Мбайт
Продолжительность : 2 м. 29 с.
Общий поток : 470 Кбит/сек
Дата кодирования : UTC 2013-10-27 04:05:00
Дата пометки : UTC 2013-10-27 04:05:00
Видео
Идентификатор : 1
Формат : AVC
Формат/Информация : Advanced Video Codec
Профиль формата : [url=mailto:High@L3.1]High@L3.1[/url]
Параметр CABAC формата : Да
Параметр ReFrames формата : 4 кадра
Параметр GOP формата : M=1, N=20
Идентификатор кодека : avc1
Идентификатор кодека/Информация : Advanced Video Coding
Продолжительность : 2 м. 29 с.
Продолжительность оригинала : 2 м. 29 с.
Битрейт : 347 Кбит/сек
Ширина : 1280 пикселей
Высота : 720 пикселей
Соотношение сторон : 16:9
Режим частоты кадров : Постоянный
Частота кадров : 10,000 кадров/сек
Цветовое пространство : YUV
Субдискретизация насыщенности : 4:2:0
Битовая глубина : 8 бит
Тип развёртки : Прогрессивная
Бит/(Пиксели*Кадры) : 0.038
Размер потока : 6,18 Мбайт (74%)
Размер потока оригинала : 6,18 Мбайт (74%)
Язык : English
Дата кодирования : UTC 2013-10-27 04:05:00
Дата пометки : UTC 2013-10-27 04:05:00
Основные цвета : BT.709
Характеристики трансфера : BT.709
Коэффициенты матрицы : BT.709
mdhd_Duration : 149700
Аудио
Идентификатор : 2
Формат : AAC
Формат/Информация : Advanced Audio Codec
Профиль формата : LC
Идентификатор кодека : 40
Продолжительность : 2 м. 29 с.
Продолжительность оригинала : 2 м. 29 с.
Вид битрейта : Постоянный
Битрейт : 121 Кбит/сек
Каналы : 2 канала
Расположение каналов : Front: L R
Частота : 44,1 КГц
Метод сжатия : С потерями
Размер потока : 2,16 Мбайт (26%)
Размер потока оригинала : 2,16 Мбайт (26%)
Язык : English
Дата кодирования : UTC 2013-10-27 04:05:00
Дата пометки : UTC 2013-10-27 04:05:00
mdhd_Duration : 149693
Скриншоты:
Скачать .torrent

Для того, чтобы скачать торрент-файл

Александр Ипполитов - Lightroom - незаменимый инструмент современного фотографа (2013)

с нашего сайта, Вам необходимо Войти на сайт под своим логином! Если у Вас ещё нет логина, тогда Вам нужно сначала Зарегистрироваться!

Как скачивать? · Что такое торрент? · Рейтинг и ограничения

Показать сообщения:    
Ответить на тему

Александр Ипполитов - Lightroom - незаменимый инструмент современного фотографа (2013) скачать торрент (torrent), видеоуроки, тренинги, обучающее видео и видеокурсы

Текущее время: Сегодня 10:38

Часовой пояс: GMT + 4



Вы не можете начинать темы
Вы не можете отвечать на сообщения
Вы не можете редактировать свои сообщения
Вы не можете удалять свои сообщения
Вы не можете голосовать в опросах
Вы не можете прикреплять файлы к сообщениям
Вы не можете скачивать файлы