Специалист - Zend Framework 2. Основы разработки (2012)

Ответить на тему
 
Автор Сообщение

Yulya ®

-Специалист - Zend Framework 2. Основы разработки (2012)- Автор (режиссер): Специалист
Название: Zend Framework 2. Основы разработки
Год выпуска: 2012
Жанр: Программирование
Продолжительность: 12:01:29
Качество видео: PCRec
Видеокодек: VC-1
Битрейт видео: ~200 kb/s, 30,000 FPS
Размер кадра: 1024х768
Аудиокодек: WMA
Битрейт аудио: 102 kb/s (CBR), 2 Ch, 44100 Hz
Описание:
Zend Framework 2 – библиотека классов с открытым исходным кодом, в основу которого положен принцип «крайней простоты». ZF2 помогает упростить процесс разработки и позволяет повысить конкурентоспособность и продуктивность разработчика. Использование набора настраиваемых классов PHP, ZF2 обеспечивает надежную функциональность и подходит как для больших, так и для малых задач.
Окончив курс, Вы научитесь использовать библиотеку лучших практик в создании PHP-приложений для разработки Ваших собственных приложений.

Программа курса

Модуль 1. Основные понятия
  • Обзор
  • Test Driven Development
  • Autoloader
  • Конфигурация
  • Event Manager
  • Dependency Injection
  • Практическая работа
Модуль 2. Модули
  • Модули
  • Менеджер модулей
  • Менеджер сервисов
  • Специфическая конфигурация модулей
  • Практическая работа
Модуль 3. MVC
  • Стратегия шаблона
  • Шаблон MVC
  • Контроллеры
  • Плагины
  • Маршрутизации
  • Посмотреть слоя
  • Помощники (хелперы)
  • Макеты
  • Просмотр моделей
  • Практическая работа
Модуль 4. Модели
  • Подключение баз данных
  • Практическая работа
Модуль 5. Формы / фильтры / валидаторов
  • Фильтры
  • Валидаторы
  • Формы
  • Практическая работа
Модуль 6. Аутентификация / Контроль доступа
  • Сохранение информации в сессиях
  • Доступ к спискам управления
  • Аутентификация через базу данных
  • Практическая работа
Модуль 7. Логирование / Почта
  • Внесении записи в журнал
  • Отправка почты
  • Практическая работа

По окончании курса Вы будете уметь:

  • Знать основные понятия ZendFramework 2
  • Работать с модулями
  • Работать с шаблоном MVC
  • Подключать базы данных в своих моделях
  • Использовать формы, фильтры, валидаторы
  • Использовать контроль доступа и проводить аутентификацию
  • Вносить записи в журнал и отправлять почту

MediaInfo:

Общее
Полное имя : D:\Загрузки\Специалист - Zend Framework 2\Zend Framework 2. Основы разработки\zend1_day1.wmv
Формат : Windows Media
Размер файла : 559 Мбайт
Продолжительность : 4 ч. 4 м.
Режим общего битрейта : Переменный
Общий поток : 319 Кбит/сек
Максимальный общий битрейт : 1933 Кбит/сек
Название фильма : zend1_day1
Дата кодирования : UTC 2013-09-07 08:53:27.240
Видео
Идентификатор : 2
Формат : VC-1
Профиль формата : MP@HL
Идентификатор кодека : WMV3
Идентификатор кодека/Информация : Windows Media Video 9
Идентификатор кодека/Подсказка : WMV3
Описание кодека : Windows Media Video 9
Продолжительность : 4 ч. 4 м.
Вид битрейта : Переменный
Битрейт : 200 Кбит/сек
Ширина : 1024 пикселя
Высота : 768 пикселей
Соотношение сторон : 4:3
Частота кадров : 30,000 кадров/сек
Цветовое пространство : YUV
Субдискретизация насыщенности : 4:2:0
Битовая глубина : 8 бит
Тип развёртки : Прогрессивная
Метод сжатия : С потерями
Бит/(Пиксели*Кадры) : 0.008
Размер потока : 351 Мбайт (63%)
Язык : English (US)
Аудио
Идентификатор : 1
Формат : WMA
Версия формата : Version 2
Идентификатор кодека : 161
Идентификатор кодека/Информация : Windows Media Audio
Описание кодека : Windows Media Audio 9.2 - VBR Quality 90, 44 kHz, stereo 1-pass VBR
Продолжительность : 4 ч. 4 м.
Вид битрейта : Переменный
Битрейт : 102 Кбит/сек
Каналы : 2 канала
Частота : 44,1 КГц
Битовая глубина : 16 бит
Размер потока : 179 Мбайт (32%)
Язык : English (US)
Скриншоты:
Скачать .torrent

Для того, чтобы скачать торрент-файл

Специалист - Zend Framework 2. Основы разработки (2012)

с нашего сайта, Вам необходимо Войти на сайт под своим логином! Если у Вас ещё нет логина, тогда Вам нужно сначала Зарегистрироваться!

Как скачивать? · Что такое торрент? · Рейтинг и ограничения

Показать сообщения:    
Ответить на тему

Специалист - Zend Framework 2. Основы разработки (2012) скачать торрент (torrent), видеоуроки, тренинги, обучающее видео и видеокурсы

Текущее время: Сегодня 14:49

Часовой пояс: GMT + 4



Вы не можете начинать темы
Вы не можете отвечать на сообщения
Вы не можете редактировать свои сообщения
Вы не можете удалять свои сообщения
Вы не можете голосовать в опросах
Вы не можете прикреплять файлы к сообщениям
Вы не можете скачивать файлы