Последнее из V.I.P.-раздела

03-Дек-19 09:59
03-Дек-19 09:57
03-Дек-19 09:55
03-Дек-19 09:53
03-Дек-19 09:49
03-Дек-19 09:48
03-Дек-19 09:46
03-Дек-19 09:44
03-Дек-19 09:37
03-Дек-19 09:36

Евгений Воробьев - Основы студийной фотографии (2013)

Ответить на тему
 
Автор Сообщение

Yulya ®

-Евгений Воробьев - Основы студийной фотографии (2013)- Автор (режиссер): Евгений Воробьев
Жанр: Обучающий
Продолжительность: 00:58:08
Качество видео: WEB-DL
Видеокодек: MPEG4 (AVC)
Битрейт видео: ~2 128 Kbps
Размер кадра: 1280х720
Аудиокодек: AAC
Битрейт аудио: 157 Kbps, 2 ch
Описание:
Получите пошаговую систему для эффективного обучения студийной фотографии. Узнай секрет о том, как профессиональные фотографы создают свои шедевры в фотостудии, которыми восхищаются миллионы.

Содержание:

1. Введение
Как наиболее эффективно обучаться на курсе, что будет рассказано.
2. Какой свет бывает в студии
Вы узнаете чем отличаются разные источники света в студии, какие и когда нужно применять.
3. Самые популярные производители оборудования
Вы хотите купить студийное оборудование, но не знаете какое? Этот урок дас Вам полное представление о самых популярных производителей оборудования. Чем отличаются дорогие источники света от бюджетных.
4. Насадки (модификаторы)
Зачем нужны софтбоксы, зонты, стрибоксы, рефлекторы и многое другое. Как влияет каждая насадка на рисунок.
5. Дополнительное оборудование
Какие фоны использовать для съемки, как пользоваться отражателями, стойками и другим оборудованием.
6. Жесткий или мягкий свет?
Вы узнаете, как легко различить жесткий и мягкий свет. Как влияют насадки, какой свет лучше использовать для фотосъемок.
7. Зависимость от расстояния
Даже расстояние источника света до модели (предмета) сильное влияет на нашу конечную фотографию. Разберем с Вами на какое же расстояние поставить свет.
8. Фотосъемка с одним источником света
Начинаем практиковаться. Как же всего с одним источником света создать интересный шедевр. Примеры и схемы света.
9. Работа с большим количеством источников
Как легко выставить свет из 3, 5, 10 источников? Все очень просто и наглядно.
10. Основные схемы света в студии
Теперь настало время создания шедевров. Вы узнаете самые интересные схемы света, как их выставлять, как выставить мощность источников.

Mediainfo

General
Complete name : 1_1.mp4
Format : MPEG-4
Format profile : Base Media / Version 2
Codec ID : mp42
File size : 37.2 MiB
Duration : 2mn 16s
Overall bit rate : 2 289 Kbps
Encoded date : UTC 2013-04-30 07:38:29
Tagged date : UTC 2013-04-30 07:38:29
Video
ID : 1
Format : AVC
Format/Info : Advanced Video Codec
Format profile : [url=mailto:High@L3.1]High@L3.1[/url]
Format settings, CABAC : Yes
Format settings, ReFrames : 4 frames
Format settings, GOP : M=4, N=60
Codec ID : avc1
Codec ID/Info : Advanced Video Coding
Duration : 2mn 16s
Bit rate mode : Variable
Bit rate : 2 128 Kbps
Width : 1 280 pixels
Height : 720 pixels
Display aspect ratio : 16:9
Frame rate mode : Constant
Frame rate : 23.976 fps
Color space : YUV
Chroma subsampling : 4:2:0
Bit depth : 8 bits
Scan type : Progressive
Bits/(Pixel*Frame) : 0.096
Stream size : 34.6 MiB (93%)
Writing library : x264 core 129 r2245 bc13772
Encoding settings : cabac=1 / ref=3 / deblock=1:0:0 / analyse=0x3:0x113 / me=hex / subme=7 / psy=1 / psy_rd=1.00:0.00 / mixed_ref=1 / me_range=16 / chroma_me=1 / trellis=1 / 8x8dct=1 / cqm=0 / deadzone=21,11 / fast_pskip=1 / chroma_qp_offset=-2 / threads=12 / lookahead_threads=2 / sliced_threads=0 / nr=0 / decimate=1 / interlaced=0 / bluray_compat=0 / constrained_intra=0 / bframes=3 / b_pyramid=2 / b_adapt=1 / b_bias=0 / direct=1 / weightb=1 / open_gop=0 / weightp=2 / keyint=72 / keyint_min=24 / scenecut=40 / intra_refresh=0 / rc_lookahead=40 / rc=2pass / mbtree=1 / bitrate=2128 / ratetol=1.0 / qcomp=0.60 / qpmin=5 / qpmax=69 / qpstep=4 / cplxblur=20.0 / qblur=0.5 / vbv_maxrate=3750 / vbv_bufsize=12500 / nal_hrd=none / ip_ratio=1.40 / aq=1:1.00
Encoded date : UTC 2013-04-30 07:38:29
Tagged date : UTC 2013-04-30 07:38:29
Audio
ID : 2
Format : AAC
Format/Info : Advanced Audio Codec
Format profile : LC
Codec ID : 40
Duration : 2mn 16s
Bit rate mode : Variable
Bit rate : 157 Kbps
Channel(s) : 2 channels
Channel positions : Front: L R
Sampling rate : 48.0 KHz
Compression mode : Lossy
Stream size : 2.56 MiB (7%)
Encoded date : UTC 2013-04-30 07:38:29
Tagged date : UTC 2013-04-30 07:38:29
Скачать .torrent

Для того, чтобы скачать торрент-файл

Евгений Воробьев - Основы студийной фотографии (2013)

с нашего сайта, Вам необходимо Войти на сайт под своим логином! Если у Вас ещё нет логина, тогда Вам нужно сначала Зарегистрироваться!

Как скачивать? · Что такое торрент? · Рейтинг и ограничения

Показать сообщения:    
Ответить на тему

Евгений Воробьев - Основы студийной фотографии (2013) скачать торрент (torrent), видеоуроки, тренинги, обучающее видео и видеокурсы

Текущее время: Сегодня 22:00

Часовой пояс: GMT + 4



Вы не можете начинать темы
Вы не можете отвечать на сообщения
Вы не можете редактировать свои сообщения
Вы не можете удалять свои сообщения
Вы не можете голосовать в опросах
Вы не можете прикреплять файлы к сообщениям
Вы не можете скачивать файлы