Последнее из V.I.P.-раздела

13-Дек-19 08:59
13-Дек-19 08:58
13-Дек-19 08:58
13-Дек-19 08:57
13-Дек-19 08:54
13-Дек-19 08:54
13-Дек-19 08:52
13-Дек-19 08:50
13-Дек-19 08:49
13-Дек-19 08:47

Master-Skills & Андрей Скидан - Программирование барабанов «от и до» + Обработка и сведение барабанной установки «от и до» (2013)

Ответить на тему
 
Автор Сообщение

Yulya ®

-Master-Skills & Андрей Скидан - Программирование барабанов «от и до» + Обработка и сведение барабанной установки «от и до» (2013)- Автор (режиссер): Master-Skills & Андрей Скидан
Название: Программирование барабанов «от и до» + Обработка и сведение барабанной установки «от и до»
Год выпуска: 2013
Жанр: Работа со звуком
Язык: Русский
Продолжительность: 04:53:08 + 06:30:58
Качество видео: PCRec
Видеокодек: TSCC
Битрейт видео: 814 Kbps, 15.000 fps
Битрейт видео бонуса: 299 Kbps, 10.000 fps
Размер кадра: 1024x768, 4:3
Размер кадра бонуса: 1024x576, 16:9
Аудиокодек: MP3
Битрейт аудио: 320 Kbps, 2 channels, 44.1 KHz
Битрейт аудио бонуса: 160 Kbps, 2 channels, 44.1 KHz
Описание: Видеокурс «Программирование барабанов “от и до”» — это источник знаний, которые помогут вам получить качественный (во всех смыслах) звук барабанов в своих композициях, затратив на его формирование минимум средств и усилий.
Программирование («забивка») барабанов на компьютере с использованием хорошего барабанного модуля сегодня способно дать исключительно качественный результат. Нужно только научиться правильно это делать.
Собственно, данный курс как раз и поможет вам научиться программировать ударные правильно, чтобы получить высококачественное и реалистичное звучание любой партии.
Информация, представленная в видеокурсе, основана на личном опыте и знаниях автора и представлена в удобном для изучения формате.
Вряд ли вы сможете где-либо найти все те методики, технологии и практические советы, которые встречаются в уроках этого видеокурса.

Бонус:

В практическом видеокурсе "Обработка и сведение барабанной установки «от и до» I" автор покажет вам процесс обработки и сведения барабанной установки на примере в стиле рок-баллады.
В практическом видеокурсе "Обработка и сведение барабанной установки «от и до» II" автор покажет вам процесс обработки и сведения барабанной установки на примере в стиле фанк.
В практическом видеокурсе "Обработка и сведение барабанной установки «от и до» III" автор покажет вам процесс обработки и сведения барабанной установки на примере в стиле металл.

Содержание:

Глава 1. Устройство барабанной установки
Урок 1 – Компоненты барабанной установки
Урок 2 – Размеры и форма компонентов
Урок 3 – Конфигурация барабанной установки
Глава 2. Барабанный модуль Superior Drummer
Урок 1 – Формирование барабанной установки
Урок 2 – Выделение компонентов
Урок 3 – Обзор секции «Instrument»
Урок 4 – Обзор секции «Pitch»
Урок 5 – Обзор секции «Envelope»
Урок 6 – Обзор секции «Humanize»
Урок 7 – Обзор секций «EZ Mixer» и «Master Volume»
Урок 8 – Изменение вида страницы «Standard»
Урок 9 – Обзор секции «Voice & Layer»
Урок 10 – Обзор секции «X-Drum»
Урок 11 – Обзор виртуального микшера
Урок 12 – Контроллеры управления уровнями микрофонов
Урок 13 – Обзор страницы «Grooves»
Урок 14 – Обзор страницы «Mapping»
Урок 15 – Функция «Bounce». Экспортирование MIDI-партии в аудио
Урок 16 – Страница «Settings». Глобальные настройки модуля
Глава 3. Основы программирования
Урок 1 – Способы ввода MIDI-данных
Урок 2 – Правило 4-х линий
Урок 3 – Квантизация
Урок 4 – Разнообразие партии
Урок 5 – Динамика и микродинамика
Урок 6 – Прием Up-Down
Урок 7 – Программирование хай-хета
Урок 8 – Дроби
Урок 9 – Форшлаги
Урок 10 – Двойные удары
Урок 11 – Мертвые ноты
Урок 12 – Сбивки. Часть I
Урок 13 – Сбивки. Часть II
Урок 14 – Сбивки. Часть III
Урок 15 – Заключение. Полезные советы
Глава 4. Практика программирования I
Урок 1 – Подготовка к работе. Запись и редактирование партий бочки, малого барабана и том-томов
Урок 2 – Программирование партии хай-хета
Урок 3 – Программирование партии райда
Урок 4 – Запись и редактирование партии педали хай-хета
Урок 5 – Программирование акцентных тарелок. Корректировка нюансов
Глава 5. Практика программирования II
Урок 1 – Запись и редактирование партий бочки, малого барабана и том-томов. Часть I
Урок 2 – Запись и редактирование партий бочки, малого барабана и том-томов. Часть II
Урок 3 – Программирование партии хай-хета
Урок 4 – Программирование партии райда и педали хай-хета
Урок 5 – Программирование акцентных тарелок. Корректировка нюансов
Глава 6. Практика программирования III
Урок 1 – Подготовка к работе. Запись и редактирование партий бочки, малого барабана и том-томов Часть I
Урок 2 – Запись и редактирование партий бочки, малого барабана и том-томов. Часть II
Урок 3 – Запись и редактирование партий бочки, малого барабана и том-томов. Часть III
Урок 4 – Запись и редактирование партий бочки, малого барабана и том-томов. Часть IV
Урок 5 – Программирование партии хай-хета и тарелок. Часть I
Урок 6 – Программирование партии хай-хета и тарелок. Часть II
Урок 7 – Программирование акцентных тарелок. Корректировка нюансов
Бонус
Обработка и сведение барабанной установки «от и до» I
Обработка и сведение барабанной установки «от и до» II
Обработка и сведение барабанной установки «от и до» III

MediaInfo:

General
Complete name : E:\TORRENTS.RU\Андрей Скидан - Программирование барабанов «от и до»\001 - Устройство ударной установки\01 - Компоненты барабанной установки.avi
Format : AVI
Format/Info : Audio Video Interleave
File size : 83.0 MiB
Duration : 10mn 11s
Overall bit rate : 1 139 Kbps
Video
ID : 0
Format : TechSmith
Codec ID : tscc
Codec ID/Info : TechSmith Screen Capture
Duration : 10mn 11s
Bit rate : 814 Kbps
Width : 1 024 pixels
Height : 768 pixels
Display aspect ratio : 4:3
Frame rate : 15.000 fps
Bits/(Pixel*Frame) : 0.069
Stream size : 59.3 MiB (71%)
Audio
ID : 1
Format : MPEG Audio
Format version : Version 1
Format profile : Layer 3
Codec ID : 55
Codec ID/Hint : MP3
Duration : 10mn 11s
Bit rate mode : Constant
Bit rate : 320 Kbps
Channel(s) : 2 channels
Sampling rate : 44.1 KHz
Compression mode : Lossy
Stream size : 23.3 MiB (28%)
Alignment : Split accross interleaves
Interleave, duration : 999 ms (14.98 video frames)
Interleave, preload duration : 750 ms
Writing library : LAME3.97 (beta)
General
Complete name : E:\TORRENTS.RU\Андрей Скидан - Программирование барабанов «от и до»\Обработка и сведение барабанной установки «от и до» I\001 - Анализ проекта.avi
Format : AVI
Format/Info : Audio Video Interleave
File size : 42.6 MiB
Duration : 12mn 51s
Overall bit rate : 463 Kbps
Video
ID : 0
Format : TechSmith
Codec ID : tscc
Codec ID/Info : TechSmith Screen Capture
Duration : 12mn 51s
Bit rate : 299 Kbps
Width : 1 024 pixels
Height : 576 pixels
Display aspect ratio : 16:9
Frame rate : 10.000 fps
Bits/(Pixel*Frame) : 0.051
Stream size : 27.5 MiB (65%)
Audio
ID : 1
Format : MPEG Audio
Format version : Version 1
Format profile : Layer 3
Codec ID : 55
Codec ID/Hint : MP3
Duration : 12mn 51s
Bit rate mode : Constant
Bit rate : 160 Kbps
Channel(s) : 2 channels
Sampling rate : 44.1 KHz
Compression mode : Lossy
Stream size : 14.7 MiB (35%)
Alignment : Split accross interleaves
Interleave, duration : 999 ms (9.99 video frames)
Interleave, preload duration : 750 ms
Writing library : LAME3.97 (beta)
Скриншоты:

Igo-rok

Большое Спасибище обожаю уроки Скидана
Показать сообщения:    
Ответить на тему

Master-Skills & Андрей Скидан - Программирование барабанов «от и до» + Обработка и сведение барабанной установки «от и до» (2013) скачать торрент (torrent), видеоуроки, тренинги, обучающее видео и видеокурсы

Текущее время: Сегодня 11:36

Часовой пояс: GMT + 4



Вы не можете начинать темы
Вы не можете отвечать на сообщения
Вы не можете редактировать свои сообщения
Вы не можете удалять свои сообщения
Вы не можете голосовать в опросах
Вы не можете прикреплять файлы к сообщениям
Вы не можете скачивать файлы