Юрий Ткач - Java для тестировщиков (2010)

Ответить на тему
 
Автор Сообщение

Yulya ®

-Юрий Ткач - Java для тестировщиков (2010)- Автор (режиссер): Юрий Ткач
Название: Java для тестировщиков
Год выпуска: 2010
Жанр: Программирование
Продолжительность: 19:12:22
Качество видео: DVDRip
Видеокодек: AVC
Битрейт видео: ~1340 kb/s, 30,000 FPS
Размер кадра: 1280x720
Аудиокодек: AAC
Битрейт аудио: 152 kb/s (CBR), 2 Ch, 44100 Hz
Описание:
Курс учит базовому программированию на языке Java, объясняет основные понятия, знакомит с наиболее популярными библиотеками и средствами, которые могут пригодиться тестировщикам. Курс расчитан на слушателей, которые слабо подготовлены в программировании.

Содержание:

› Урок 1 - Введение - Java для тестировщиков
› Урок 2 - Синтаксис языка - Java для тестировщиков
› Урок 3 - ООП - Java для тестировщиков
› Урок 4 - ООП - Java для тестировщиков
› Урок 5 - ООП - Java для тестировщиков
› Урок 6 - ООП - Java для тестировщиков
› Урок 7 - Enum, Number, String - Java для тестировщиков
› Урок 8 - Eclipse IDE - Java для тестировщиков
› Урок 9 - Exceptions - Java для тестировщиков
› Урок 10 - Generics, Collections - Java для тестировщиков
› Урок 11 - Annotations, I/O, Properties - Java для тестировщиков
› Урок 12 - Threads - Java для тестировщиков
› Урок 13 - Swing - Java для тестировщиков
› Урок 14 - Swing - Java для тестировщиков
› Урок 15 - JDBC - Java для тестировщиков
› Урок 16 - JUnit - Java для тестировщиков
› Урок 17 - Spring - Java для тестировщиков
› Урок 18 - EasyMock - Java для тестировщиков
› Урок 19 - Ant и Maven - Java для тестировщиков

MediaInfo:

Общее
Полное имя : D:\Загрузки\JAVA для тестировщиков\Урок 1 - Введение - Java для тестировщиков.mp4
Формат : MPEG-4
Профиль формата : Base Media / Version 2
Идентификатор кодека : mp42
Размер файла : 445 Мбайт
Продолжительность : 41 м.
Режим общего битрейта : Переменный
Общий поток : 1498 Кбит/сек
Дата кодирования : UTC 2011-09-15 09:43:25
Дата пометки : UTC 2011-09-15 09:43:25
gsst : 0
gstd : 2492200
gssd : BADC21501MH1317506799144175
gshh : v1.nonxt8.c.youtube.com
Видео
Идентификатор : 1
Формат : AVC
Формат/Информация : Advanced Video Codec
Профиль формата : [url=mailto:High@L3.1]High@L3.1[/url]
Параметр CABAC формата : Да
Параметр ReFrames формата : 1 кадр
Параметр GOP формата : M=1, N=30
Идентификатор кодека : avc1
Идентификатор кодека/Информация : Advanced Video Coding
Продолжительность : 41 м.
Битрейт : 1340 Кбит/сек
Максимальный битрейт : 3460 Кбит/сек
Ширина : 1280 пикселей
Высота : 720 пикселей
Соотношение сторон : 16:9
Режим частоты кадров : Переменный
Частота кадров : 30,000 кадров/сек
Минимальная частота кадров : 29,412 кадров/сек
Максимальная частота кадров : 30,303 кадров/сек
Цветовое пространство : YUV
Субдискретизация насыщенности : 4:2:0
Битовая глубина : 8 бит
Тип развёртки : Прогрессивная
Бит/(Пиксели*Кадры) : 0.048
Размер потока : 398 Мбайт (89%)
Дата пометки : UTC 2011-09-15 09:45:04
Аудио
Идентификатор : 2
Формат : AAC
Формат/Информация : Advanced Audio Codec
Профиль формата : LC
Идентификатор кодека : 40
Продолжительность : 41 м.
Вид битрейта : Переменный
Битрейт : 152 Кбит/сек
Максимальный битрейт : 182 Кбит/сек
Каналы : 2 канала
Расположение каналов : Front: L R
Частота : 44,1 КГц
Метод сжатия : С потерями
Размер потока : 45,2 Мбайт (10%)
Заголовок : IsoMedia File Produced by Google, 5-11-2011
Дата кодирования : UTC 2011-09-15 09:44:14
Дата пометки : UTC 2011-09-15 09:45:04
Скриншоты:
Скачать .torrent

Для того, чтобы скачать торрент-файл

Юрий Ткач - Java для тестировщиков (2010)

с нашего сайта, Вам необходимо Войти на сайт под своим логином! Если у Вас ещё нет логина, тогда Вам нужно сначала Зарегистрироваться!

Как скачивать? · Что такое торрент? · Рейтинг и ограничения

Показать сообщения:    
Ответить на тему

Юрий Ткач - Java для тестировщиков (2010) скачать торрент (torrent), видеоуроки, тренинги, обучающее видео и видеокурсы

Текущее время: Сегодня 00:27

Часовой пояс: GMT + 4



Вы не можете начинать темы
Вы не можете отвечать на сообщения
Вы не можете редактировать свои сообщения
Вы не можете удалять свои сообщения
Вы не можете голосовать в опросах
Вы не можете прикреплять файлы к сообщениям
Вы не можете скачивать файлы