Вадим Сегеда - Быстрые деньги на Китае + бонусы (2013)

Ответить на тему
 
Автор Сообщение

Yulya ®

-Вадим Сегеда - Быстрые деньги на Китае + бонусы (2013)- Автор (режиссер): Вадим Сегеда
Название: Быстрые деньги на Китае + бонусы
Год выпуска: 2013
Жанр: Бизнес
Продолжительность: 10:07:24
Качество видео: PCRec
Видеокодек: AVC
Битрейт видео: ~15fps 157kbps
Размер кадра: 1280x720
Аудиокодек: AAC, MP3
Битрейт аудио: 44100Hz stereo 93-192kbps
Доп. материалы: Есть
Описание:
Если вы хотите разобраться в теме заработка на Китайских товарах. Начать заказывать продукцию из-за границы и зарабатывать, продавая этот товар с наценкой до 1000%, то этот Аудио-Видео курс для Вас!
Проходя данный Аудио-Видео курс вы сделаете свой первый (или далеко не первый) грамотный заказ по нашей системе, чтобы он был максимально выгодным и точно дошел до вас или до вашего клиента (об этом подробнее в курсе) в целости и сохранности.
Вы получите четкую и пошаговую систему по заработку на китайских товарах.

Дополнительная информация:

Тезисная Программа Аудио-Видео:Почему Китай — самая перспективная страна для импорта
- Стереотип о качестве китайских товаров
- Перспективы и тенденции рынка сегодня
- Сколько можно заработать работая с китайской продукцией
Качество китайской продукции
- Как не ошибиться при выборе товара
- Как выбрать поставщика
- Как не обжечься на некачественном товаре
- Cекретная техника проверки поставщика
- Алгоритм ведения переговоров перед закупкой товара
Перспективный товар для работы в России заказывая из Китая
- Как найти перспективную тему - секреты лидеров
- Подсказки прибыльных направлений от рынка
- Как рассчитать прибыль сразу
- Технология "Лучший из Лучших" при выборе товара
- Эффективность эффекта товара или первое впечатление в глазах клиента
3 самые сочные технологии работы с китайским рынком
- Как закупать товар на средства клиента, не вкладывая своих кровных
- Крупные сделки для смелых
- Стабильные деньги или раз на раз не приходится, как перейти к постоянным заказам
Работа с китайскими сайтами
- Алгоритм выбора товара
- Чек-лист заказа
- Инструкция опроса поставщика
- Проверка отправителя на честность
- Что делать, если вдруг пришел товар не того качества или вообще не тот
- Раскрываем нечестных поставщиков сразу
- С каких сайтов какой товар заказывать
- Список проверенных порталов для заказа
Тонкости заказа товара
- Рейтинг поставщиков или как нас обманывают китайцы
- Как зарегистрироваться на таобао не имея китайской симки
- Что умалчивает отправитель, когда отправляет товар
- Ликвидируем уловки китайских поставщиков
Оптовые сделки
- Крупные заказы
- Как стартануть в опте китайских товаров
- Кому и как продавать
- Где найти первых клиентов
Таможня (Очень важно)
- Что делать нельзя ни в коем случае
- Что делать, если случилась неприятность
- Обходим с фланга или как обойти систему
Монетизация. Продажа китайских товаров
- Продажа товара с досок объявлений
- Продажа из соц.сетей
- Как продавать на форумах
- Мой подающий интернет магазина
- 3 самых сильных продающих приема 2013 года
- Бонусы

MI

Полное имя : D:\Андрей\Быстрые деньги на китае\Как заказывать товары из Китая и продавать их с наценкоЙ до 1000%\day-0-predvaritelnoe-zadanie\under-biz-vadimsegeda-fast-china-money-day-0.mp4
Формат : MPEG-4
Профиль формата : Base Media / Version 2
Идентификатор кодека : mp42
Размер файла : 220 Мбайт
Продолжительность : 2 ч. 1 м.
Общий поток : 253 Кбит/сек
Дата кодирования : UTC 2013-02-25 19:21:21
Дата пометки : UTC 2013-02-25 19:21:21
Видео
Идентификатор : 1
Формат : AVC
Формат/Информация : Advanced Video Codec
Профиль формата : [url=mailto:High@L4.0]High@L4.0[/url]
Параметр CABAC формата : Да
Параметр ReFrames формата : 4 кадра
Идентификатор кодека : avc1
Идентификатор кодека/Информация : Advanced Video Coding
Продолжительность : 2 ч. 1 м.
Продолжительность оригинала : 2 ч. 1 м.
Вид битрейта : Переменный
Битрейт : 157 Кбит/сек
Ширина : 1280 пикселей
Высота : 720 пикселей
Соотношение сторон : 16:9
Режим частоты кадров : Постоянный
Частота кадров : 15,000 кадров/сек
Цветовое пространство : YUV
Субдискретизация насыщенности : 4:2:0
Битовая глубина : 8 бит
Тип развёртки : Прогрессивная
Бит/(Пиксели*Кадры) : 0.011
Размер потока : 137 Мбайт (62%)
Размер потока оригинала : 137 Мбайт (62%)
Язык : English
Дата кодирования : UTC 2013-02-25 19:21:21
Дата пометки : UTC 2013-02-25 19:21:21
mdhd_Duration : 7312265
Основные цвета : BT.709
Характеристики трансфера : BT.709
Коэффициенты матрицы : BT.709
Аудио
Идентификатор : 2
Формат : AAC
Формат/Информация : Advanced Audio Codec
Профиль формата : LC
Идентификатор кодека : 40
Продолжительность : 2 ч. 1 м.
Продолжительность оригинала : 2 ч. 1 м.
Вид битрейта : Постоянный
Битрейт : 93,3 Кбит/сек
Каналы : 2 канала
Расположение каналов : Front: L R
Частота : 44,1 КГц
Метод сжатия : С потерями
Размер потока : 81,5 Мбайт (37%)
Размер потока оригинала : 81,5 Мбайт (37%)
Язык : English
Дата кодирования : UTC 2013-02-25 19:21:21
Дата пометки : UTC 2013-02-25 19:21:21
mdhd_Duration : 7328111
Скриншоты:
Скачать .torrent

Для того, чтобы скачать торрент-файл

Вадим Сегеда - Быстрые деньги на Китае + бонусы (2013)

с нашего сайта, Вам необходимо Войти на сайт под своим логином! Если у Вас ещё нет логина, тогда Вам нужно сначала Зарегистрироваться!

Как скачивать? · Что такое торрент? · Рейтинг и ограничения

Показать сообщения:    
Ответить на тему

Вадим Сегеда - Быстрые деньги на Китае + бонусы (2013) скачать торрент (torrent), видеоуроки, тренинги, обучающее видео и видеокурсы

Текущее время: Сегодня 01:54

Часовой пояс: GMT + 4



Вы не можете начинать темы
Вы не можете отвечать на сообщения
Вы не можете редактировать свои сообщения
Вы не можете удалять свои сообщения
Вы не можете голосовать в опросах
Вы не можете прикреплять файлы к сообщениям
Вы не можете скачивать файлы