А.Проскурин, А.Каменев, Н.Филимонов - Создаем свой RePack (2012-2013)

Ответить на тему
 
Автор Сообщение

Yulya ®

-А.Проскурин, А.Каменев, Н.Филимонов - Создаем свой RePack (2012-2013)- Автор (режиссер): А.Проскурин, А.Каменев, Н.Филимонов
Название: Создаем свой RePack
Год выпуска: 2012-2013
Жанр: Обучающие видеуроки
Продолжительность: 02:12:45
Качество видео: PCRec
Видеокодек: Xvid
Битрейт видео: ~1 323 Kbps
Размер кадра: 1280х720
Аудиокодек: MP3
Битрейт аудио: 192 Kbps, 2 ch
Описание:
В данных видеоуроках подробно показано о том, как можно создать свой RePack с помощью таких программ, как: Inno Setup, Smart Install Maker и Visual Studio 2012. Посмотрев и изучив видеоуроки Вы научитесь не только создавать свои RePack-и игр и программ, но и изменять интерфейс самого установщика с помощью редактирования скриптов, работать со srep, скриптом для распаковки данных ISDone, сжимать исходные файлы для облегчения самого инсталлятора и ещё многому другому, что поможет Вам в дальнейшем придавать своему RePack-у оригинальный и неповторимый вид.
Зачем вообще делают репаки!? - А затем, что Репак нам дает немалый выигрыш по многим параметрам в отличие от оригинала. Создавая репак, мы в итоге получаем больше свободного места на винте и конечно же удобство установки. (патчи, адоны, таблетки, будут уже установлены).

Содержание:

1. Создание инсталлятора - Антон Проскурин
2. Редактирование скрипта инсталлятора Часть 1 - Антон Проскурин
3. Редактирование скрипта инсталлятора Часть 2 - Антон Проскурин
4. Функции нового репака
5. Методы сжатия игровых файлов - А.Каменев
6. Как сделать свой RePack со Smart Install - Н.Филимонов
7. Как сделать фейк прогу (Visual Studio 2012) - Н.Филимонов
8. Дополнителные файлы: Скрипты, исходники, шаблоны и программы используемые в видеоуроках.

Mediainfo:

General
Complete name : 1. Создание инсталлятора.avi
Format : AVI
Format/Info : Audio Video Interleave
File size : 183 MiB
Duration : 16mn 44s
Overall bit rate : 1 528 Kbps
Writing application : Lavf54.61.104
Video
ID : 0
Format : xvid
Codec ID : xvid
Duration : 16mn 44s
Bit rate : 1 323 Kbps
Width : 1 280 pixels
Height : 720 pixels
Display aspect ratio : 16:9
Frame rate : 25.000 fps
Bits/(Pixel*Frame) : 0.057
Stream size : 158 MiB (87%)
Audio
ID : 1
Format : MPEG Audio
Format version : Version 1
Format profile : Layer 3
Mode : Joint stereo
Mode extension : MS Stereo
Codec ID : 55
Codec ID/Hint : MP3
Duration : 16mn 44s
Bit rate mode : Constant
Bit rate : 192 Kbps
Channel(s) : 2 channels
Sampling rate : 48.0 KHz
Compression mode : Lossy
Stream size : 23.0 MiB (13%)
Alignment : Aligned on interleaves
Interleave, duration : 24 ms (0.60 video frame)
Interleave, preload duration : 24 ms
Writing library : LAME3.99.5
Скачать .torrent

Для того, чтобы скачать торрент-файл

А.Проскурин, А.Каменев, Н.Филимонов - Создаем свой RePack (2012-2013)

с нашего сайта, Вам необходимо Войти на сайт под своим логином! Если у Вас ещё нет логина, тогда Вам нужно сначала Зарегистрироваться!

Как скачивать? · Что такое торрент? · Рейтинг и ограничения

Показать сообщения:    
Ответить на тему

А.Проскурин, А.Каменев, Н.Филимонов - Создаем свой RePack (2012-2013) скачать торрент (torrent), видеоуроки, тренинги, обучающее видео и видеокурсы

Текущее время: Сегодня 02:55

Часовой пояс: GMT + 4



Вы не можете начинать темы
Вы не можете отвечать на сообщения
Вы не можете редактировать свои сообщения
Вы не можете удалять свои сообщения
Вы не можете голосовать в опросах
Вы не можете прикреплять файлы к сообщениям
Вы не можете скачивать файлы