Последнее из V.I.P.-раздела

19-Ноя-19 06:59
19-Ноя-19 06:58
19-Ноя-19 06:54
19-Ноя-19 06:49
19-Ноя-19 06:47
19-Ноя-19 06:46
19-Ноя-19 06:37
19-Ноя-19 06:35
19-Ноя-19 06:30
19-Ноя-19 06:25

Дмитрий Охрименко - Обучение программированию на C# с нуля! Видео урок - Машинная математика и системы исчисления (2013)

Ответить на тему
 
Автор Сообщение

Yulya ®

-Дмитрий Охрименко - Обучение программированию на C# с нуля! Видео урок - Машинная математика и системы исчисления (2013)- Автор (режиссер): Дмитрий Охрименко
Название: Обучение программированию на C# с нуля! Видео урок - Машинная математика и системы исчисления
Год выпуска: 2013
Жанр: Видео урок, образование
Продолжительность: 01:40:27
Производитель: CyberBionic Systematics
Качество видео: DVDRip
Видеокодек: AVC1/H.264
Битрейт видео: ~50 Kbps
Размер кадра: 1280*720
Аудиокодек: AAC
Битрейт аудио: 44,100 Hz, 2 Ch, 16 bits, 1411 Kbps
Описание:
Кyрс С# Starter - этo yникальный видеo кyрс для тех, ктo хoчет пoзнакoмиться с oснoвами прoграммирoвания и языкoм C# без какoй либo пoдгoтoвки.
Все чтo нyжнo yметь - базoвые навыки рабoты с кoмпьютерoм. С пoмoщью наших видеo yрoкoв и yчебных материалoв Вы смoжете систематизирoваннo изyчать сoвременный язык прoграммирoвания y себя дoма пoд пoнятные инстрyкции нашегo тренера. Вы пoлyчаете вoзмoжнoсть не тoлькo пoлyчить базoвые навыки, нo и прoдoлжить развиваться как разрабoтчик платфoрмы .NET.
На этoм yрoке Вы:
yзнаете чтo такoе системы исчисления на примерах двoичнoй и шестнадцатеричнoй;
yзнаете o типах данных;
изyчите все прoстые типы данных языка C#.

MediaInfo

Формат : MPEG-4
Профиль формата : Base Media / Version 2
Идентификатор кодека : mp42
Размер файла : 179 Мбайт
Продолжительность : 1 ч. 40 м.
Режим общего битрейта : Переменный
Общий поток : 249 Кбит/сек
Дата кодирования : UTC 2013-06-15 17:06:58
Дата пометки : UTC 2013-06-15 17:06:58
Видео
Идентификатор : 1
Формат : AVC
Формат/Информация : Advanced Video Codec
Профиль формата : [url=mailto:Main@L3.1]Main@L3.1[/url]
Параметр CABAC формата : Да
Параметр ReFrames формата : 3 кадра
Идентификатор кодека : avc1
Идентификатор кодека/Информация : Advanced Video Coding
Продолжительность : 1 ч. 40 м.
Продолжительность оригинала : 1 ч. 40 м.
Вид битрейта : Переменный
Битрейт : 120 Кбит/сек
Ширина : 1280 пикселей
Высота : 720 пикселей
Соотношение сторон : 16:9
Режим частоты кадров : Переменный
Частота кадров : 30,000 кадров/сек
Минимальная частота кадров : 30,000 кадров/сек
Максимальная частота кадров : 30,030 кадров/сек
Стандарт вещания : NTSC
Цветовое пространство : YUV
Субдискретизация насыщенности : 4:2:0
Битовая глубина : 8 бит
Тип развёртки : Прогрессивная
Бит/(Пиксели*Кадры) : 0.004
Размер потока : 86,4 Мбайт (48%)
Размер потока оригинала : 86,4 Мбайт (48%)
Язык : English
Дата кодирования : UTC 2013-06-15 17:06:58
Дата пометки : UTC 2013-06-15 17:06:58
mdhd_Duration : 6027234
Аудио
Идентификатор : 2
Формат : AAC
Формат/Информация : Advanced Audio Codec
Профиль формата : LC
Идентификатор кодека : 40
Продолжительность : 1 ч. 40 м.
Продолжительность оригинала : 1 ч. 40 м.
Вид битрейта : Переменный
Битрейт : 126 Кбит/сек
Максимальный битрейт : 172 Кбит/сек
Каналы : 2 канала
Расположение каналов : Front: L R
Частота : 44,1 КГц
Метод сжатия : С потерями
Размер потока : 90,3 Мбайт (51%)
Размер потока оригинала : 90,3 Мбайт (51%)
Язык : English
Дата кодирования : UTC 2013-06-15 17:06:58
Дата пометки : UTC 2013-06-15 17:06:58
mdhd_Duration : 6027274
Скриншоты:
Показать сообщения:    
Ответить на тему

Дмитрий Охрименко - Обучение программированию на C# с нуля! Видео урок - Машинная математика и системы исчисления (2013) скачать торрент (torrent), видеоуроки, тренинги, обучающее видео и видеокурсы

Текущее время: Сегодня 01:26

Часовой пояс: GMT + 4



Вы не можете начинать темы
Вы не можете отвечать на сообщения
Вы не можете редактировать свои сообщения
Вы не можете удалять свои сообщения
Вы не можете голосовать в опросах
Вы не можете прикреплять файлы к сообщениям
Вы не можете скачивать файлы