Дмитрий Охрименко - Обучение программированию на C# с нуля! Видео урок - Знакомство с языком C# (2013)

Ответить на тему
 
Автор Сообщение

Yulya ®

-Дмитрий Охрименко - Обучение программированию на C# с нуля! Видео урок - Знакомство с языком C# (2013)- Автор (режиссер): Дмитрий Охрименко
Название: Обучение программированию на C# с нуля! Видео урок - Знакомство с языком C#
Год выпуска: 2013
Жанр: Видео урок, образование
Продолжительность: 01:43:36
Производитель: CyberBionic Systematics
Качество видео: DVDRip
Видеокодек: AVC1/H.264
Битрейт видео: ~50 Kbps
Размер кадра: 1280*720
Аудиокодек: AAC
Битрейт аудио: 44,100 Hz, 2 Ch, 16 bits, 1411 Kbps
Описание:
Видеoкурс С# представляет сoбoй полнoе и oбстоятельнoе введение в философию NET и С#, написаннoе для пoлных нoвичков в языке прoграммирования C# и oбъектнo oриентированнoм прoграммирoвании.
Если Вы решили чтo гoтовы начать oбучение прoграммированию, тo данный видеoкурс приятнo yдивит Вас. Видеоyроки пo С# oт CyberBionics этo вoзмoжность oсуществить легкий и быстрый старт в прoграммирование! Курс прoграммирования C# Стартовый пoможет Вам начать Ваше знакoмство языками прoграммирoвания, на примере среды C#.
Пристyпите к сoзданию Вашего первoгo прилoжения на языке С#.

MediaInfo

Формат : MPEG-4
Профиль формата : Base Media / Version 2
Идентификатор кодека : mp42
Размер файла : 207 Мбайт
Продолжительность : 1 ч. 43 м.
Режим общего битрейта : Переменный
Общий поток : 280 Кбит/сек
Дата кодирования : UTC 2013-06-14 12:15:37
Дата пометки : UTC 2013-06-14 12:15:37
Видео
Идентификатор : 1
Формат : AVC
Формат/Информация : Advanced Video Codec
Профиль формата : [url=mailto:Main@L3.1]Main@L3.1[/url]
Параметр CABAC формата : Да
Параметр ReFrames формата : 3 кадра
Идентификатор кодека : avc1
Идентификатор кодека/Информация : Advanced Video Coding
Продолжительность : 1 ч. 43 м.
Продолжительность оригинала : 1 ч. 43 м.
Вид битрейта : Переменный
Битрейт : 151 Кбит/сек
Ширина : 1280 пикселей
Высота : 720 пикселей
Соотношение сторон : 16:9
Режим частоты кадров : Переменный
Частота кадров : 30,000 кадров/сек
Минимальная частота кадров : 30,000 кадров/сек
Максимальная частота кадров : 30,030 кадров/сек
Стандарт вещания : NTSC
Цветовое пространство : YUV
Субдискретизация насыщенности : 4:2:0
Битовая глубина : 8 бит
Тип развёртки : Прогрессивная
Бит/(Пиксели*Кадры) : 0.005
Размер потока : 112 Мбайт (54%)
Размер потока оригинала : 112 Мбайт (54%)
Язык : English
Дата кодирования : UTC 2013-06-14 12:15:37
Дата пометки : UTC 2013-06-14 12:15:37
mdhd_Duration : 6216800
Аудио
Идентификатор : 2
Формат : AAC
Формат/Информация : Advanced Audio Codec
Профиль формата : LC
Идентификатор кодека : 40
Продолжительность : 1 ч. 43 м.
Продолжительность оригинала : 1 ч. 43 м.
Вид битрейта : Переменный
Битрейт : 126 Кбит/сек
Максимальный битрейт : 166 Кбит/сек
Каналы : 2 канала
Расположение каналов : Front: L R
Частота : 44,1 КГц
Метод сжатия : С потерями
Размер потока : 93,1 Мбайт (45%)
Размер потока оригинала : 93,1 Мбайт (45%)
Язык : English
Дата кодирования : UTC 2013-06-14 12:15:37
Дата пометки : UTC 2013-06-14 12:15:37
mdhd_Duration : 6216841
Скриншоты:
Скачать .torrent

Для того, чтобы скачать торрент-файл

Дмитрий Охрименко - Обучение программированию на C# с нуля! Видео урок - Знакомство с языком C# (2013)

с нашего сайта, Вам необходимо Войти на сайт под своим логином! Если у Вас ещё нет логина, тогда Вам нужно сначала Зарегистрироваться!

Как скачивать? · Что такое торрент? · Рейтинг и ограничения

Показать сообщения:    
Ответить на тему

Дмитрий Охрименко - Обучение программированию на C# с нуля! Видео урок - Знакомство с языком C# (2013) скачать торрент (torrent), видеоуроки, тренинги, обучающее видео и видеокурсы

Текущее время: Сегодня 20:54

Часовой пояс: GMT + 4



Вы не можете начинать темы
Вы не можете отвечать на сообщения
Вы не можете редактировать свои сообщения
Вы не можете удалять свои сообщения
Вы не можете голосовать в опросах
Вы не можете прикреплять файлы к сообщениям
Вы не можете скачивать файлы