Последнее из V.I.P.-раздела

09-Дек-19 05:49
09-Дек-19 05:47
09-Дек-19 05:45
08-Дек-19 05:50
08-Дек-19 05:49
08-Дек-19 05:48
08-Дек-19 05:46
08-Дек-19 05:45
08-Дек-19 05:44
08-Дек-19 05:43

Дмитрий Охрименко - Видео урок JavaScript Advanced. Конструкторы и прототипы (2013)

Ответить на тему
 
Автор Сообщение

Yulya ®

-Дмитрий Охрименко - Видео урок JavaScript Advanced. Конструкторы и прототипы (2013)- Автор (режиссер): Дмитрий Охрименко
Название: Видео урок JavaScript Advanced. Конструкторы и прототипы
Год выпуска: 2013
Жанр: Видео урок, образование
Продолжительность: 01:41:14
Производитель: CyberBionic Systematics
Качество видео: DVDRip
Видеокодек: AVC1/H.264
Битрейт видео: ~50 Kbps
Размер кадра: 1280*720
Аудиокодек: AAC
Битрейт аудио: 44,100 Hz, 2 Ch, 16 bits, 1411 Kbps
Описание:
Видeо Курc JavaScript для профеccионалов расcчитан нa вeб рaзработчиков и прогрaммистов, которыe ужe имeют основныe нaвыки в рaзработке вeб приложeний. Просмотрeв видeо уроки Вы cможeте рaботaть с объeктами и создaвать функции конcтрукторы, рaботать с DOM-дерeвом стрaницы, обрaбатывать cобытия элeментов докумeнта. Этот видeокурс дaст возможноcть перeйти Вaм на новый уровeнь влaдения наиболee рaспространенным cкриптовым языком прогрaммировaния.
На этом видeо урокe Вы узнaете:
Основныe конcтрукторы: Array(), Object(), Function(), String(), Date();
Нaзнaчение ключeвого словa this в конструкторaх и принципы их рaботы;
Создaние пользовaтeльских конcтрукторов;
Что такоe прототип, использовaние прототипов и добaвление свойств и мeтодов в прототип;
Рaботa с конcтруктором Object;
Объeктно-ориeнтированные тeхники языкa JavaScript;
Рeaлизация нaследовaния в JavaScript.

MediaInfo

Формат : MPEG-4
Профиль формата : Base Media / Version 2
Идентификатор кодека : mp42
Размер файла : 204 Мбайт
Продолжительность : 1 ч. 41 м.
Режим общего битрейта : Переменный
Общий поток : 282 Кбит/сек
Дата кодирования : UTC 2013-08-05 14:52:06
Дата пометки : UTC 2013-08-05 14:52:06
Видео
Идентификатор : 1
Формат : AVC
Формат/Информация : Advanced Video Codec
Профиль формата : [url=mailto:Main@L3.1]Main@L3.1[/url]
Параметр CABAC формата : Да
Параметр ReFrames формата : 3 кадра
Идентификатор кодека : avc1
Идентификатор кодека/Информация : Advanced Video Coding
Продолжительность : 1 ч. 41 м.
Продолжительность оригинала : 1 ч. 41 м.
Вид битрейта : Переменный
Битрейт : 154 Кбит/сек
Ширина : 1280 пикселей
Высота : 720 пикселей
Соотношение сторон : 16:9
Режим частоты кадров : Переменный
Частота кадров : 30,000 кадров/сек
Минимальная частота кадров : 30,000 кадров/сек
Максимальная частота кадров : 30,030 кадров/сек
Стандарт вещания : NTSC
Цветовое пространство : YUV
Субдискретизация насыщенности : 4:2:0
Битовая глубина : 8 бит
Тип развёртки : Прогрессивная
Бит/(Пиксели*Кадры) : 0.006
Размер потока : 111 Мбайт (54%)
Размер потока оригинала : 111 Мбайт (54%)
Язык : English
Дата кодирования : UTC 2013-08-05 14:52:06
Дата пометки : UTC 2013-08-05 14:52:06
mdhd_Duration : 6074067
Аудио
Идентификатор : 2
Формат : AAC
Формат/Информация : Advanced Audio Codec
Профиль формата : LC
Идентификатор кодека : 40
Продолжительность : 1 ч. 41 м.
Продолжительность оригинала : 1 ч. 41 м.
Вид битрейта : Переменный
Битрейт : 126 Кбит/сек
Максимальный битрейт : 166 Кбит/сек
Каналы : 2 канала
Расположение каналов : Front: L R
Частота : 44,1 КГц
Метод сжатия : С потерями
Размер потока : 91,0 Мбайт (45%)
Размер потока оригинала : 91,0 Мбайт (45%)
Язык : English
Дата кодирования : UTC 2013-08-05 14:52:06
Дата пометки : UTC 2013-08-05 14:52:06
mdhd_Duration : 6074108
Скриншоты:
Скачать .torrent

Для того, чтобы скачать торрент-файл

Дмитрий Охрименко - Видео урок JavaScript Advanced. Конструкторы и прототипы (2013)

с нашего сайта, Вам необходимо Войти на сайт под своим логином! Если у Вас ещё нет логина, тогда Вам нужно сначала Зарегистрироваться!

Как скачивать? · Что такое торрент? · Рейтинг и ограничения

Показать сообщения:    
Ответить на тему

Дмитрий Охрименко - Видео урок JavaScript Advanced. Конструкторы и прототипы (2013) скачать торрент (torrent), видеоуроки, тренинги, обучающее видео и видеокурсы

Текущее время: Сегодня 07:56

Часовой пояс: GMT + 4



Вы не можете начинать темы
Вы не можете отвечать на сообщения
Вы не можете редактировать свои сообщения
Вы не можете удалять свои сообщения
Вы не можете голосовать в опросах
Вы не можете прикреплять файлы к сообщениям
Вы не можете скачивать файлы