Последнее из V.I.P.-раздела

09-Дек-19 05:49
09-Дек-19 05:47
09-Дек-19 05:45
08-Дек-19 05:50
08-Дек-19 05:49
08-Дек-19 05:48
08-Дек-19 05:46
08-Дек-19 05:45
08-Дек-19 05:44
08-Дек-19 05:43

Школа программирования - Программирование на objective-c для iOS. Уровень 1 (2013)

Ответить на тему
 
Автор Сообщение

Yulya ®

-Школа программирования - Программирование на objective-c для iOS. Уровень 1 (2013)- Автор (режиссер): Школа программирования
Название: Программирование на objective-c для ios. Уровень 1
Год выпуска: 2013
Жанр: Программирование
Продолжительность: 09:07:11
Качество видео: PCRec
Видеокодек: AVC
Битрейт видео: ~601 kb/s, 25 FPS
Размер кадра: 800x600, 1024x768
Аудиокодек: AAC
Битрейт аудио: 96 kb/s (CBR), 2 Ch, 48,0 Hz
Описание:
Курс включает в себя все базовые понятия. По окончании курса выпускник сможет разрабатывать простые приложения для iPhone или iPad и будет иметь надежный фундамент для дальнейшего развития. Профессиональная литература по программированию приложений и интерфейса станет доступна для понимания, так как все базовые понятия языка и стандартные фреймворки будут рассмотрены в курсе.

MediaInfo:

Общее
Полное имя : D:\Загрузки\objcl1\lesson_1.mp4
Формат : MPEG-4
Профиль формата : Base Media / Version 2
Идентификатор кодека : mp42
Размер файла : 143 Мбайт
Продолжительность : 28 м.
Общий поток : 702 Кбит/сек
Дата кодирования : UTC 2012-03-24 15:09:22
Дата пометки : UTC 2012-03-24 15:40:08
Видео
Идентификатор : 1
Формат : AVC
Формат/Информация : Advanced Video Codec
Профиль формата : [url=mailto:Main@L3.1]Main@L3.1[/url]
Параметр CABAC формата : Нет
Параметр ReFrames формата : 2 кадра
Идентификатор кодека : avc1
Идентификатор кодека/Информация : Advanced Video Coding
Продолжительность : 28 м.
Битрейт : 601 Кбит/сек
Ширина : 800 пикселей
Высота : 600 пикселей
Соотношение сторон : 4:3
Режим частоты кадров : Постоянный
Частота кадров : 25,000 кадров/сек
Цветовое пространство : YUV
Субдискретизация насыщенности : 4:2:0
Битовая глубина : 8 бит
Тип развёртки : Прогрессивная
Бит/(Пиксели*Кадры) : 0.050
Размер потока : 122 Мбайт (86%)
Язык : English
Дата кодирования : UTC 2012-03-24 15:09:23
Дата пометки : UTC 2012-03-24 15:40:08
Основные цвета : BT.601 NTSC
Характеристики трансфера : BT.709
Коэффициенты матрицы : BT.601
Аудио
Идентификатор : 2
Формат : AAC
Формат/Информация : Advanced Audio Codec
Профиль формата : LC
Идентификатор кодека : 40
Продолжительность : 28 м.
Вид битрейта : Постоянный
Битрейт : 96,0 Кбит/сек
Номинальный битрейт : 128 Кбит/сек
Каналы : 2 канала
Расположение каналов : Front: L R
Частота : 48,0 КГц
Метод сжатия : С потерями
Задержка видео : 40 мс.
Размер потока : 19,5 Мбайт (14%)
Язык : English
Дата кодирования : UTC 2012-03-24 15:09:24
Дата пометки : UTC 2012-03-24 15:40:08
Скриншоты:
Скачать .torrent

Для того, чтобы скачать торрент-файл

Школа программирования - Программирование на objective-c для iOS. Уровень 1 (2013)

с нашего сайта, Вам необходимо Войти на сайт под своим логином! Если у Вас ещё нет логина, тогда Вам нужно сначала Зарегистрироваться!

Как скачивать? · Что такое торрент? · Рейтинг и ограничения

Показать сообщения:    
Ответить на тему

Школа программирования - Программирование на objective-c для iOS. Уровень 1 (2013) скачать торрент (torrent), видеоуроки, тренинги, обучающее видео и видеокурсы

Текущее время: Сегодня 05:28

Часовой пояс: GMT + 4



Вы не можете начинать темы
Вы не можете отвечать на сообщения
Вы не можете редактировать свои сообщения
Вы не можете удалять свои сообщения
Вы не можете голосовать в опросах
Вы не можете прикреплять файлы к сообщениям
Вы не можете скачивать файлы