Александр Свет - Профессиональная обработка RAW в Capture One Pro 7 (2013)

Ответить на тему
 
Автор Сообщение

Yulya ®

-Александр Свет - Профессиональная обработка RAW в Capture One Pro 7 (2013)- Автор (режиссер): Александр Свет
Название: Профессиональная обработка RAW в Capture One Pro 7
Год выпуска: 2013
Жанр: Обучающий видеокурс
Продолжительность: 03:56:08
Качество видео: PCRec
Видеокодек: AVC
Битрейт видео: ~30fps 3266kbps
Размер кадра: 1680x1050
Аудиокодек: AAC
Битрейт аудио: 44100Hz stereo 244kbps
Описание:
Профессиональная обработка RAW в Capture One Pro — это четыре часа обучающего видео (полностью на русском языке), которые освещают все аспекты работы в Capture One Pro: от описания всех инструментов программы и эффективных приемов обработки, до сложной работы с RAW.

Дополнительная информация:

План видеокурса
Часть I. Интерфейс Capture One Pro
• Интерфейс Capture One Pro 7
• Кастомизация интерфейса
Часть II. Работа с файлами и каталогизация фотографий
• Работа с сессиями
• Каталогизация фотографий: создание каталога, работа с файлами, поиск по архиву в Capture One Pro 7
Часть III. Функционал Capture One
• Съемка в компьютер с помощью Capture One
• Просмотр и управление съемкой с помощью iPhone/iPad
• Инструменты для работы с оптическими дефектами изображения
• Создание собственных профилей LCC (Lens Cast Calibration)
• Возможности кадрирования фотографии
• Инструменты для обработки деталей изображения
• Локальная обработка кадра: работа с масками выделения и слоями в Local Adjustments
• Пакетная обработка фотографий
• Работа с метеданными файла
• Настройки конвертирования RAW
Часть IV. Работа с экспозицией и цветом
• Инструменты и приемы обработки экспозиции
• Инструменты и приемы обработки цвета
Часть V. Практика обработки фотографий
• Профессиональные приемы обработки RAW
• Обработка портретной фотографии
• Обработка travel-фотографии
• Обработка репортажной фотографии
• Обработка свадебной фотографии

MI

Общее
Полное имя : D:\Андрей\prof.obrabotka
Формат : MPEG-4
Профиль формата : Base Media / Version 2
Идентификатор кодека : mp42
Размер файла : 440 Мбайт
Режим общего битрейта : Переменный
Общий поток : 3515 Кбит/сек
Дата кодирования : UTC 2013-04-16 05:18:39
Дата пометки : UTC 2013-04-16 05:31:07
Видео
Идентификатор : 1
Формат : AVC
Формат/Информация : Advanced Video Codec
Профиль формата : [url=mailto:Main@L4.2]Main@L4.2[/url]
Параметр CABAC формата : Да
Параметр ReFrames формата : 5 кадров
Параметр GOP формата : M=4, N=25
Идентификатор кодека : avc1
Идентификатор кодека/Информация : Advanced Video Coding
Вид битрейта : Переменный
Битрейт : 3267 Кбит/сек
Ширина : 1680 пикселей
Высота : 1050 пикселей
Соотношение сторон : 1,600
Режим частоты кадров : Постоянный
Частота кадров : 30,000 кадров/сек
Цветовое пространство : YUV
Субдискретизация насыщенности : 4:2:0
Битовая глубина : 8 бит
Тип развёртки : Прогрессивная
Бит/(Пиксели*Кадры) : 0.062
Размер потока : 409 Мбайт (93%)
Дата кодирования : UTC 2013-04-16 05:18:39
Дата пометки : UTC 2013-04-16 05:31:07
Основные цвета : BT.709
Характеристики трансфера : BT.709
Коэффициенты матрицы : BT.709
Аудио
Идентификатор : 2
Формат : AAC
Формат/Информация : Advanced Audio Codec
Профиль формата : LC
Идентификатор кодека : 40
Вид битрейта : Переменный
Битрейт : 244 Кбит/сек
Максимальный битрейт : 453 Кбит/сек
Каналы : 2 канала
Расположение каналов : Front: L R
Частота : 44,1 КГц
Метод сжатия : С потерями
Задержка видео : 67 мс.
Размер потока : 30,5 Мбайт (7%)
Дата кодирования : UTC 2013-04-16 05:18:39
Дата пометки : UTC 2013-04-16 05:19:24
Скриншоты:
Скачать .torrent

Для того, чтобы скачать торрент-файл

Александр Свет - Профессиональная обработка RAW в Capture One Pro 7 (2013)

с нашего сайта, Вам необходимо Войти на сайт под своим логином! Если у Вас ещё нет логина, тогда Вам нужно сначала Зарегистрироваться!

Как скачивать? · Что такое торрент? · Рейтинг и ограничения

Показать сообщения:    
Ответить на тему

Александр Свет - Профессиональная обработка RAW в Capture One Pro 7 (2013) скачать торрент (torrent), видеоуроки, тренинги, обучающее видео и видеокурсы

Текущее время: Сегодня 15:43

Часовой пояс: GMT + 4



Вы не можете начинать темы
Вы не можете отвечать на сообщения
Вы не можете редактировать свои сообщения
Вы не можете удалять свои сообщения
Вы не можете голосовать в опросах
Вы не можете прикреплять файлы к сообщениям
Вы не можете скачивать файлы