Последнее из V.I.P.-раздела

19-Ноя-19 06:59
19-Ноя-19 06:58
19-Ноя-19 06:54
19-Ноя-19 06:49
19-Ноя-19 06:47
19-Ноя-19 06:46
19-Ноя-19 06:37
19-Ноя-19 06:35
19-Ноя-19 06:30
19-Ноя-19 06:25

Дмитрий Охрименко - Видео урок C#. Пользовательские коллекции в Microsoft .Net Framework (2013)

Ответить на тему
 
Автор Сообщение

Yulya ®

-Дмитрий Охрименко - Видео урок C#. Пользовательские коллекции в Microsoft .Net Framework (2013)- Автор (режиссер): Дмитрий Охрименко
Название: Видео урок C#. Пользовательские коллекции в Microsoft .Net Framework
Год выпуска: 2013
Жанр: Видео урок
Продолжительность: 01:12:48
Производитель: CyberBionic Systematics
Качество видео: DVDRip
Видеокодек: AVC1/H.264
Битрейт видео: ~50 Kbps
Размер кадра: 1280*720
Аудиокодек: AAC
Битрейт аудио: 44,100 Hz, 2 Ch, 16 bits, 1411 Kbps
Описание:
Видеo курс С# oриентирован на всестoроннее и глубoкое изучение вoзможностей плaтформы .NET. Мaтериал урока мoжно легко освоить, имея некий oпыт прoграммирования на языкe C# и желаниe узнaть профессиональные ювелирныe тoнкости платформы .NЕT, а также их эффeктивне использoвание. С пoмощью прилагагающихcя учeбных матeриалов Вы будeте систeматизировано пoлучать практичеcкие знания пoд чeткие и понятныe инcтрукции опытного тренeра.
На дaнном занятии будет рассмoтрено:
Рабoта с коллeкциями в Micrоsoft .Net Frаmework.
Примeр сoздания пoльзовательских кoллекций.
Осмотр работы ключевых интерфейсов:
-IEnumеrator и IEnumеrable;
-IList;
-ICollection.

MediaInfo

Формат : MPEG-4
Профиль формата : Base Media / Version 2
Идентификатор кодека : mp42
Размер файла : 148 Мбайт
Продолжительность : 1 ч. 12 м.
Режим общего битрейта : Переменный
Общий поток : 283 Кбит/сек
Дата кодирования : UTC 2013-06-06 21:18:06
Дата пометки : UTC 2013-06-06 21:18:06
Видео
Идентификатор : 1
Формат : AVC
Формат/Информация : Advanced Video Codec
Профиль формата : [url=mailto:Main@L3.1]Main@L3.1[/url]
Параметр CABAC формата : Да
Параметр ReFrames формата : 3 кадра
Идентификатор кодека : avc1
Идентификатор кодека/Информация : Advanced Video Coding
Продолжительность : 1 ч. 12 м.
Продолжительность оригинала : 1 ч. 12 м.
Вид битрейта : Переменный
Битрейт : 155 Кбит/сек
Ширина : 1280 пикселей
Высота : 720 пикселей
Соотношение сторон : 16:9
Режим частоты кадров : Переменный
Частота кадров : 30,000 кадров/сек
Минимальная частота кадров : 30,000 кадров/сек
Максимальная частота кадров : 30,030 кадров/сек
Стандарт вещания : NTSC
Цветовое пространство : YUV
Субдискретизация насыщенности : 4:2:0
Битовая глубина : 8 бит
Тип развёртки : Прогрессивная
Бит/(Пиксели*Кадры) : 0.006
Размер потока : 80,7 Мбайт (55%)
Размер потока оригинала : 80,7 Мбайт (55%)
Язык : English
Дата кодирования : UTC 2013-06-06 21:18:07
Дата пометки : UTC 2013-06-06 21:18:07
mdhd_Duration : 4367067
Аудио
Идентификатор : 2
Формат : AAC
Формат/Информация : Advanced Audio Codec
Профиль формата : LC
Идентификатор кодека : 40
Продолжительность : 1 ч. 12 м.
Продолжительность оригинала : 1 ч. 12 м.
Вид битрейта : Переменный
Битрейт : 126 Кбит/сек
Максимальный битрейт : 173 Кбит/сек
Каналы : 2 канала
Расположение каналов : Front: L R
Частота : 44,1 КГц
Метод сжатия : С потерями
Размер потока : 65,4 Мбайт (44%)
Размер потока оригинала : 65,4 Мбайт (44%)
Язык : English
Дата кодирования : UTC 2013-06-06 21:18:07
Дата пометки : UTC 2013-06-06 21:18:07
mdhd_Duration : 4367093
Скриншоты:
Скачать .torrent

Для того, чтобы скачать торрент-файл

Дмитрий Охрименко - Видео урок C#. Пользовательские коллекции в Microsoft .Net Framework (2013)

с нашего сайта, Вам необходимо Войти на сайт под своим логином! Если у Вас ещё нет логина, тогда Вам нужно сначала Зарегистрироваться!

Как скачивать? · Что такое торрент? · Рейтинг и ограничения

Показать сообщения:    
Ответить на тему

Дмитрий Охрименко - Видео урок C#. Пользовательские коллекции в Microsoft .Net Framework (2013) скачать торрент (torrent), видеоуроки, тренинги, обучающее видео и видеокурсы

Текущее время: Сегодня 00:49

Часовой пояс: GMT + 4



Вы не можете начинать темы
Вы не можете отвечать на сообщения
Вы не можете редактировать свои сообщения
Вы не можете удалять свои сообщения
Вы не можете голосовать в опросах
Вы не можете прикреплять файлы к сообщениям
Вы не можете скачивать файлы