Дмитрий Охрименко - Видео урок C# Базовый. Потоки и многопоточность (2013)

Ответить на тему
 
Автор Сообщение

Yulya ®

-Дмитрий Охрименко - Видео урок C# Базовый. Потоки и многопоточность (2013)- Автор (режиссер): Дмитрий Охрименко
Название: Видео урок C# Базовый. Потоки и многопоточность
Год выпуска: 2013
Жанр: Видео урок
Продолжительность: 02:16:41
Производитель: CyberBionic Systematics
Качество видео: DVDRip
Видеокодек: AVC1/H.264
Битрейт видео: ~50 Kbps
Размер кадра: 1280*720
Аудиокодек: AAC
Битрейт аудио: 44,100 Hz, 2 Ch, 16 bits, 1411 Kbps
Описание:
На этом уроке рассматривается:
Многопоточность - как средство многозадачного программирования среды .NET.
Работа с критическими секциями - средства синхронизации доступа потоков к разделяемым ресурсам.
Использование делегатов ThreadStart и ParameterizedThreadStart.

MediaInfo

Формат : MPEG-4
Профиль формата : Base Media / Version 2
Идентификатор кодека : mp42
Размер файла : 259 Мбайт
Продолжительность : 2 ч. 16 м.
Режим общего битрейта : Переменный
Общий поток : 265 Кбит/сек
Дата кодирования : UTC 2013-06-27 11:53:19
Дата пометки : UTC 2013-06-27 11:53:19
Видео
Идентификатор : 1
Формат : AVC
Формат/Информация : Advanced Video Codec
Профиль формата : [url=mailto:Main@L3.1]Main@L3.1[/url]
Параметр CABAC формата : Да
Параметр ReFrames формата : 3 кадра
Идентификатор кодека : avc1
Идентификатор кодека/Информация : Advanced Video Coding
Продолжительность : 2 ч. 16 м.
Продолжительность оригинала : 2 ч. 16 м.
Вид битрейта : Переменный
Битрейт : 136 Кбит/сек
Ширина : 1280 пикселей
Высота : 720 пикселей
Соотношение сторон : 16:9
Режим частоты кадров : Переменный
Частота кадров : 30,000 кадров/сек
Минимальная частота кадров : 30,000 кадров/сек
Максимальная частота кадров : 30,030 кадров/сек
Стандарт вещания : NTSC
Цветовое пространство : YUV
Субдискретизация насыщенности : 4:2:0
Битовая глубина : 8 бит
Тип развёртки : Прогрессивная
Бит/(Пиксели*Кадры) : 0.005
Размер потока : 133 Мбайт (51%)
Размер потока оригинала : 133 Мбайт (51%)
Язык : English
Дата кодирования : UTC 2013-06-27 11:53:19
Дата пометки : UTC 2013-06-27 11:53:19
mdhd_Duration : 8200067
Аудио
Идентификатор : 2
Формат : AAC
Формат/Информация : Advanced Audio Codec
Профиль формата : LC
Идентификатор кодека : 40
Продолжительность : 2 ч. 16 м.
Продолжительность оригинала : 2 ч. 16 м.
Вид битрейта : Переменный
Битрейт : 126 Кбит/сек
Максимальный битрейт : 171 Кбит/сек
Каналы : 2 канала
Расположение каналов : Front: L R
Частота : 44,1 КГц
Метод сжатия : С потерями
Размер потока : 123 Мбайт (47%)
Размер потока оригинала : 123 Мбайт (47%)
Язык : English
Дата кодирования : UTC 2013-06-27 11:53:19
Дата пометки : UTC 2013-06-27 11:53:19
mdhd_Duration : 8200104
Скриншоты:
Скачать .torrent

Для того, чтобы скачать торрент-файл

Дмитрий Охрименко - Видео урок C# Базовый. Потоки и многопоточность (2013)

с нашего сайта, Вам необходимо Войти на сайт под своим логином! Если у Вас ещё нет логина, тогда Вам нужно сначала Зарегистрироваться!

Как скачивать? · Что такое торрент? · Рейтинг и ограничения

Показать сообщения:    
Ответить на тему

Дмитрий Охрименко - Видео урок C# Базовый. Потоки и многопоточность (2013) скачать торрент (torrent), видеоуроки, тренинги, обучающее видео и видеокурсы

Текущее время: Сегодня 00:11

Часовой пояс: GMT + 4



Вы не можете начинать темы
Вы не можете отвечать на сообщения
Вы не можете редактировать свои сообщения
Вы не можете удалять свои сообщения
Вы не можете голосовать в опросах
Вы не можете прикреплять файлы к сообщениям
Вы не можете скачивать файлы