Александр Шевчук - Обзор шаблонов проектирования. Вебинар (2013)

Ответить на тему
 
Автор Сообщение

Yulya ®

-Александр Шевчук - Обзор шаблонов проектирования. Вебинар (2013)- Автор (режиссер): Александр Шевчук
Название: Обзор шаблонов проектирования. Вебинар
Год выпуска: 2013
Жанр: Видео курс
Продолжительность: 02:08:01
Производитель: CyberBionic Systematics
Качество видео: DVDRip
Видеокодек: AVC1/H.264
Битрейт видео: ~50 Kbps
Размер кадра: 1280*720
Аудиокодек: AAC
Битрейт аудио: 44,100 Hz, 2 Ch, 16 bits, 1411 Kbps
Описание:
Шаблон проектирования или паттерн — повторимая архитектурная конструкция, представляющая собой решение проблемы проектирования в рамках некоторого часто возникающего контекста.
Главная польза каждого отдельного шаблона состоит в том, что он описывает решение целого класса абстрактных проблем. Также тот факт, что каждый шаблон имеет свое имя, облегчает дискуссию об абстрактных структурах данных (ADT) между разработчиками, так как они могут ссылаться на известные шаблоны. Таким образом, за счёт шаблонов производится унификация терминологии, названий модулей и элементов проекта.
Правильно сформулированный шаблон проектирования позволяет, отыскав удачное решение, пользоваться им снова и снова.
Каждый урок состоит из:
-видео;
-презентация;
-краткий конспект урока;
-практические примеры для самостоятельной работы в Visual Studio 2012.
Программа вебинара:
1. Знакомство с каталогом патернов
2. Категоризации каталога.
3. Применению патернов.
4. Порождающих паттернов.
5. Детальное изучение патерна Abstract Factory.

MediaInfo

Формат : MPEG-4
Профиль формата : Base Media / Version 2
Идентификатор кодека : mp42
Размер файла : 208 Мбайт
Продолжительность : 2 ч. 8 м.
Режим общего битрейта : Переменный
Общий поток : 227 Кбит/сек
Дата кодирования : UTC 2013-04-25 10:02:08
Дата пометки : UTC 2013-04-25 10:02:08
Видео
Идентификатор : 1
Формат : AVC
Формат/Информация : Advanced Video Codec
Профиль формата : [url=mailto:Main@L3.1]Main@L3.1[/url]
Параметр CABAC формата : Да
Параметр ReFrames формата : 3 кадра
Идентификатор кодека : avc1
Идентификатор кодека/Информация : Advanced Video Coding
Продолжительность : 2 ч. 8 м.
Продолжительность оригинала : 2 ч. 8 м.
Вид битрейта : Переменный
Битрейт : 98,7 Кбит/сек
Ширина : 1280 пикселей
Высота : 720 пикселей
Соотношение сторон : 16:9
Режим частоты кадров : Переменный
Частота кадров : 30,000 кадров/сек
Минимальная частота кадров : 30,000 кадров/сек
Максимальная частота кадров : 30,030 кадров/сек
Стандарт вещания : NTSC
Цветовое пространство : YUV
Субдискретизация насыщенности : 4:2:0
Битовая глубина : 8 бит
Тип развёртки : Прогрессивная
Бит/(Пиксели*Кадры) : 0.004
Размер потока : 90,4 Мбайт (43%)
Размер потока оригинала : 90,4 Мбайт (43%)
Язык : English
Дата кодирования : UTC 2013-04-25 10:02:09
Дата пометки : UTC 2013-04-25 10:02:09
mdhd_Duration : 7681300
Аудио
Идентификатор : 2
Формат : AAC
Формат/Информация : Advanced Audio Codec
Профиль формата : LC
Идентификатор кодека : 40
Продолжительность : 2 ч. 8 м.
Продолжительность оригинала : 2 ч. 8 м.
Вид битрейта : Переменный
Битрейт : 126 Кбит/сек
Максимальный битрейт : 168 Кбит/сек
Каналы : 2 канала
Расположение каналов : Front: L R
Частота : 44,1 КГц
Метод сжатия : С потерями
Размер потока : 115 Мбайт (55%)
Размер потока оригинала : 115 Мбайт (55%)
Язык : English
Дата кодирования : UTC 2013-04-25 10:02:09
Дата пометки : UTC 2013-04-25 10:02:09
mdhd_Duration : 7681324
Скриншоты:
Скачать .torrent

Для того, чтобы скачать торрент-файл

Александр Шевчук - Обзор шаблонов проектирования. Вебинар (2013)

с нашего сайта, Вам необходимо Войти на сайт под своим логином! Если у Вас ещё нет логина, тогда Вам нужно сначала Зарегистрироваться!

Как скачивать? · Что такое торрент? · Рейтинг и ограничения

Показать сообщения:    
Ответить на тему

Александр Шевчук - Обзор шаблонов проектирования. Вебинар (2013) скачать торрент (torrent), видеоуроки, тренинги, обучающее видео и видеокурсы

Текущее время: Сегодня 07:59

Часовой пояс: GMT + 4



Вы не можете начинать темы
Вы не можете отвечать на сообщения
Вы не можете редактировать свои сообщения
Вы не можете удалять свои сообщения
Вы не можете голосовать в опросах
Вы не можете прикреплять файлы к сообщениям
Вы не можете скачивать файлы