Дмитрий Охрименко - Мастер-класс. Асинхронное программирование в C# 5 (2013)

Ответить на тему
 
Автор Сообщение

Yulya ®

-Дмитрий Охрименко - Мастер-класс. Асинхронное программирование в C# 5 (2013)- Автор (режиссер): Дмитрий Охрименко
Название: Мастер-класс. Асинхронное программирование в C# 5
Год выпуска: 2013
Жанр: Видео курс
Продолжительность: 01:52:00
Производитель: CyberBionic Systematics
Качество видео: DVDRip
Видеокодек: AVC1/H.264
Битрейт видео: ~50 Kbps
Размер кадра: 1280*720
Аудиокодек: AAC
Битрейт аудио: 44,100 Hz, 2 Ch, 16 bits, 1411 Kbps
Описание:
C# - один из наиболее популярных объектно-ориентированных языков программирования в мире. Став специалистом, пишущим на C#, Вы будете востребованы в любой стране.
Каждый урок состоит из:
-видео;
-презентация;
-краткий конспект урока;
-практические примеры для самостоятельной работы в Visual Studio 2012.
Содержание мастер-класса:
Синхронность и асинхронность,
Асинхронность до C# 5,
C# 5: asyns и await,
Исключения,
Асинхронность и многопоточность

MediaInfo

Формат : MPEG-4
Профиль формата : Base Media / Version 2
Идентификатор кодека : mp42
Размер файла : 234 Мбайт
Продолжительность : 1 ч. 52 м.
Режим общего битрейта : Переменный
Общий поток : 290 Кбит/сек
Дата кодирования : UTC 2013-06-12 15:08:05
Дата пометки : UTC 2013-06-12 15:08:05
Видео
Идентификатор : 1
Формат : AVC
Формат/Информация : Advanced Video Codec
Профиль формата : [url=mailto:Main@L3.1]Main@L3.1[/url]
Параметр CABAC формата : Да
Параметр ReFrames формата : 3 кадра
Идентификатор кодека : avc1
Идентификатор кодека/Информация : Advanced Video Coding
Продолжительность : 1 ч. 52 м.
Продолжительность оригинала : 1 ч. 52 м.
Вид битрейта : Переменный
Битрейт : 161 Кбит/сек
Ширина : 1280 пикселей
Высота : 720 пикселей
Соотношение сторон : 16:9
Режим частоты кадров : Переменный
Частота кадров : 30,000 кадров/сек
Минимальная частота кадров : 30,000 кадров/сек
Максимальная частота кадров : 30,030 кадров/сек
Стандарт вещания : NTSC
Цветовое пространство : YUV
Субдискретизация насыщенности : 4:2:0
Битовая глубина : 8 бит
Тип развёртки : Прогрессивная
Бит/(Пиксели*Кадры) : 0.006
Размер потока : 130 Мбайт (56%)
Размер потока оригинала : 130 Мбайт (56%)
Язык : English
Дата кодирования : UTC 2013-06-12 15:08:06
Дата пометки : UTC 2013-06-12 15:08:06
mdhd_Duration : 6777800
Аудио
Идентификатор : 2
Формат : AAC
Формат/Информация : Advanced Audio Codec
Профиль формата : LC
Идентификатор кодека : 40
Продолжительность : 1 ч. 52 м.
Продолжительность оригинала : 1 ч. 52 м.
Вид битрейта : Переменный
Битрейт : 126 Кбит/сек
Максимальный битрейт : 169 Кбит/сек
Каналы : 2 канала
Расположение каналов : Front: L R
Частота : 44,1 КГц
Метод сжатия : С потерями
Размер потока : 102 Мбайт (43%)
Размер потока оригинала : 102 Мбайт (43%)
Язык : English
Дата кодирования : UTC 2013-06-12 15:08:06
Дата пометки : UTC 2013-06-12 15:08:06
mdhd_Duration : 6777835
Скриншоты:
Скачать .torrent

Для того, чтобы скачать торрент-файл

Дмитрий Охрименко - Мастер-класс. Асинхронное программирование в C# 5 (2013)

с нашего сайта, Вам необходимо Войти на сайт под своим логином! Если у Вас ещё нет логина, тогда Вам нужно сначала Зарегистрироваться!

Как скачивать? · Что такое торрент? · Рейтинг и ограничения

Показать сообщения:    
Ответить на тему

Дмитрий Охрименко - Мастер-класс. Асинхронное программирование в C# 5 (2013) скачать торрент (torrent), видеоуроки, тренинги, обучающее видео и видеокурсы

Текущее время: Сегодня 16:08

Часовой пояс: GMT + 4



Вы не можете начинать темы
Вы не можете отвечать на сообщения
Вы не можете редактировать свои сообщения
Вы не можете удалять свои сообщения
Вы не можете голосовать в опросах
Вы не можете прикреплять файлы к сообщениям
Вы не можете скачивать файлы