Сергей Михалевич - Оптимизатор PRO (2013)

Ответить на тему
 
Автор Сообщение

Yulya ®

-Сергей Михалевич - Оптимизатор PRO (2013)- Автор (режиссер): Сергей Михалевич
Название: Оптимизатор PRO
Год выпуска: 2013
Жанр: Настройка компьютера
Продолжительность: 02:40:33
Качество видео: PCRec
Видеокодек: AVC
Битрейт видео: ~98,0 kb/s, 15,000 FPS
Размер кадра: 1024х768
Аудиокодек: AAC
Битрейт аудио: 53,6 kb/s (CBR), 2 Ch, 44100 Hz
Описание:
Пройдя видеокурс "Оптимизатор PRO":
  • Вы сможете сами следить за своим железным другом, что позволит избежать появления, со временем, многих досадных глюков и тормозов.
  • Вам не составит труда производить тонкие настройки системы, тем самым повышая производительность вашего компьютера.
  • Вы сможете с удовольствием проводить время за компьютером, наслаждаясь его четкой и отлаженной работой. Сэкономив кучу времени и нервов на поиск и устранение неполадок.
  • Вы напрочь забудете про необходимость переустановки операционной системы, тем самым, сохраняя свои деньги для траты на себя, а не на услуги специалистов.
  • Вы сможете зарабатывать на этом деньги, предоставляя свои услуги по оптимизации и настройке ПК друзьям и знакомым.
    и много чего еще...

MediaInfo

Общее
Полное имя : D:\Optimizator_PRO\Optimizator_PRO\0. Введение.mp4
Формат : MPEG-4
Профиль формата : Base Media / Version 2
Идентификатор кодека : mp42
Размер файла : 7,56 Мбайт
Продолжительность : 6 м. 52 с.
Общий поток : 154 Кбит/сек
Дата кодирования : UTC 2012-03-19 15:59:15
Дата пометки : UTC 2012-03-19 15:59:15
Видео
Идентификатор : 1
Формат : AVC
Формат/Информация : Advanced Video Codec
Профиль формата : [url=mailto:High@L3.1]High@L3.1[/url]
Параметр CABAC формата : Да
Параметр ReFrames формата : 4 кадра
Параметр GOP формата : M=1, N=75
Идентификатор кодека : avc1
Идентификатор кодека/Информация : Advanced Video Coding
Продолжительность : 6 м. 52 с.
Продолжительность оригинала : 6 м. 52 с.
Вид битрейта : Переменный
Битрейт : 98,0 Кбит/сек
Ширина : 1024 пикселя
Высота : 768 пикселей
Соотношение сторон : 4:3
Режим частоты кадров : Постоянный
Частота кадров : 15,000 кадров/сек
Цветовое пространство : YUV
Субдискретизация насыщенности : 4:2:0
Битовая глубина : 8 бит
Тип развёртки : Прогрессивная
Бит/(Пиксели*Кадры) : 0.008
Размер потока : 4,82 Мбайт (64%)
Размер потока оригинала : 4,82 Мбайт (64%)
Язык : English
Дата кодирования : UTC 2012-03-19 15:59:15
Дата пометки : UTC 2012-03-19 15:59:15
mdhd_Duration : 412430
Основные цвета : BT.709
Характеристики трансфера : BT.709
Коэффициенты матрицы : BT.709
Аудио
Идентификатор : 2
Формат : AAC
Формат/Информация : Advanced Audio Codec
Профиль формата : LC
Идентификатор кодека : 40
Продолжительность : 6 м. 52 с.
Продолжительность оригинала : 6 м. 52 с.
Вид битрейта : Постоянный
Битрейт : 53,6 Кбит/сек
Каналы : 2 канала
Расположение каналов : Front: L R
Частота : 44,1 КГц
Метод сжатия : С потерями
Размер потока : 2,63 Мбайт (35%)
Размер потока оригинала : 2,63 Мбайт (35%)
Язык : English
Дата кодирования : UTC 2012-03-19 15:59:15
Дата пометки : UTC 2012-03-19 15:59:15
mdhd_Duration : 412471
Скриншоты:
Скачать .torrent

Для того, чтобы скачать торрент-файл

Сергей Михалевич - Оптимизатор PRO (2013)

с нашего сайта, Вам необходимо Войти на сайт под своим логином! Если у Вас ещё нет логина, тогда Вам нужно сначала Зарегистрироваться!

Как скачивать? · Что такое торрент? · Рейтинг и ограничения

Показать сообщения:    
Ответить на тему

Сергей Михалевич - Оптимизатор PRO (2013) скачать торрент (torrent), видеоуроки, тренинги, обучающее видео и видеокурсы

Текущее время: Сегодня 16:04

Часовой пояс: GMT + 4



Вы не можете начинать темы
Вы не можете отвечать на сообщения
Вы не можете редактировать свои сообщения
Вы не можете удалять свои сообщения
Вы не можете голосовать в опросах
Вы не можете прикреплять файлы к сообщениям
Вы не можете скачивать файлы