Последнее из V.I.P.-раздела

19-Ноя-19 06:59
19-Ноя-19 06:58
19-Ноя-19 06:54
19-Ноя-19 06:49
19-Ноя-19 06:47
19-Ноя-19 06:46
19-Ноя-19 06:37
19-Ноя-19 06:35
19-Ноя-19 06:30
19-Ноя-19 06:25

Master-Skills & Андрей Скидан - Обработка и сведение гитар в Nuendo 4 (2012)

Ответить на тему
 
Автор Сообщение

Yulya ®

-Master-Skills & Андрей Скидан - Обработка и сведение гитар в Nuendo 4 (2012)- Автор (режиссер): Master-Skills & Андрей Скидан
Название: Обработка и сведение гитар в Nuendo 4
Год выпуска: 2012
Жанр: Работа со звуком
Язык: Русский
Продолжительность: 01:09:36
Качество видео: PCRec
Видеокодек: TechSmith
Битрейт видео: 476 Kbps, 10.000 fps
Размер кадра: 1024х768, 4:3
Аудиокодек: MP3
Битрейт аудио: 192 Kbps, 2 channels, 44.1 KHz
Описание: «Обработка и сведение гитар в Nuendo 4» — это видеокурс из 11 уроков, в которых последовательно показывается процесс обработки и сведения одной акустической и двух электрогитар с барабанами и басом. В курсе ясно и последовательно показан процесс обработки и сведения на одном примере из 7-ми гитарных дорожек в программе Nuendo 4.
Вы узнаете, как обрабатывать и сводить гитары, чтобы добиться чистого, густого и красивого звучания каждой гитары и всего микса в целом. Видеокурс не содержит никакой теории, а лишь затрагивает её необходимый минимум исключительно в процессе работы.

Дополнительная информация:

Этот курс — прежде всего, практическое пособие по обработке и сведению гитар, а не теоретическая видео-энциклопедия. Курс состоит из 11 видеоуроков общей продолжительностью 68 минут. Каждый из уроков посвящён определённой теме. Научившись производить обработку и сведение гитар на этом примере, вы сможете в будущем с большей уверенностью начать делать сведение и обработку гитар в своих фонограммах в подобном стиле. Главная цель курса — помочь вам понять принципы и особенности процесса обработки и сведения гитар.
Помимо перечисленных выше видеоуроков в курс входит ещё и полезная авторская статья на 8 страниц, где дается целых 25 полезных советов по записи гитары, которые помогут вам получить более качественную запись, а сам процесс записи сделать менее трудоемким и более приятным.

Содержание:

00. Введение
01. Анализ и подготовка проекта к работе
В этом уроке вы познакомитесь с проектом, над которым будет вестись работа во всех последующих уроках курса. В этом уроке автор также подготовит проект для дальнейшей работы.
02. Ритм-гитара. Панорамирование и фильтрация ВЧ и НЧ
Данный урок посвящен панорамированию партии ритм-гитары, состоящей из двойного дабл-трека, а также удалению из её спектра лишних низко и высокочастотных составляющих.
03. Ритм-гитара. Эквализация
Здесь автор проделает простую, но тонкую эквализацию партии ритм-гитары с помощью четырехполосного параметрического эквалайзера.
04. Ритм-гитара. Компрессия и эмуляция магнитной ленты
В этом видеоуроке будет производиться компрессия партии ритм-гитары, а также эмуляция звучания магнитофонной ленты.
05. Акустическая гитара. Фильтрация и эквализация
В данном видеоуроке автор начнет работу с акустической гитарой, он проделает фильтрацию лишних низких и высоких частот, а также проделает эквализацию.
06. Акустическая гитара. Динамическая обработка
Здесь вы увидите процесс динамической обработки акустической гитары, а именно процесс её обработки с помощью компрессора.
07. Соло-гитара. Фильтрация и эквализация
Этот видеоурок посвящен фильтрации лишних высоко и низкочастотных составляющих соло-гитары, а также её тонкой эквализации.
08. Соло-гитара. Компрессия и эмуляция магнитной ленты
В следующем уроке, посвященном обработке соло-гитары, речь пойдёт о компрессии её сигнала и эмуляции звучания магнитофонной ленты.
09. Пространственная обработка акустической гитары
Начиная с этого урока, автор будет проделывать пространственную обработку партий всех гитар. Конкретно этот урок посвящен пространственной обработке партии акустической гитары.
10. Соло-гитара. Дилэй
Здесь автор обработает соло-гитару дилэем, дабы придать её звучанию больше объёма, «полётности» и глубины.
11. Соло-гитара. Реверберация и окончательная доводка звучания
А в завершающем уроке видеокурса автор продолжит работу по пространственной обработке соло-гитары, а именно обработает её ревербератором и применит ещё одну интересную «фишку». Также в этом уроке автор подкорректирует уже сделанные настройки и завершит работу над проектом.

MediaInfo:

General
Complete name : E:\TORRENTS.RU\АНДРЕЙ СКИДАН - Обработка и сведение гитар в Nuendo 4\АНДРЕЙ СКИДАН - Обработка и сведение гитар в Nuendo 4\01 - Анализ и подготовка проекта к работе.avi
Format : AVI
Format/Info : Audio Video Interleave
File size : 22.8 MiB
Duration : 4mn 43s
Overall bit rate : 674 Kbps
Video
ID : 0
Format : TechSmith
Codec ID : tscc
Codec ID/Info : TechSmith Screen Capture
Duration : 4mn 43s
Bit rate : 476 Kbps
Width : 1 024 pixels
Height : 768 pixels
Display aspect ratio : 4:3
Frame rate : 10.000 fps
Bits/(Pixel*Frame) : 0.061
Stream size : 16.1 MiB (71%)
Audio
ID : 1
Format : MPEG Audio
Format version : Version 1
Format profile : Layer 3
Codec ID : 55
Codec ID/Hint : MP3
Duration : 4mn 43s
Bit rate mode : Constant
Bit rate : 192 Kbps
Channel(s) : 2 channels
Sampling rate : 44.1 KHz
Compression mode : Lossy
Stream size : 6.48 MiB (28%)
Alignment : Split accross interleaves
Interleave, duration : 998 ms (9.98 video frames)
Interleave, preload duration : 750 ms
Writing library : LAME3.97 (beta)
Скриншоты:
Скачать .torrent

Для того, чтобы скачать торрент-файл

Master-Skills & Андрей Скидан - Обработка и сведение гитар в Nuendo 4 (2012)

с нашего сайта, Вам необходимо Войти на сайт под своим логином! Если у Вас ещё нет логина, тогда Вам нужно сначала Зарегистрироваться!

Как скачивать? · Что такое торрент? · Рейтинг и ограничения

Показать сообщения:    
Ответить на тему

Master-Skills & Андрей Скидан - Обработка и сведение гитар в Nuendo 4 (2012) скачать торрент (torrent), видеоуроки, тренинги, обучающее видео и видеокурсы

Текущее время: Сегодня 11:59

Часовой пояс: GMT + 4



Вы не можете начинать темы
Вы не можете отвечать на сообщения
Вы не можете редактировать свои сообщения
Вы не можете удалять свои сообщения
Вы не можете голосовать в опросах
Вы не можете прикреплять файлы к сообщениям
Вы не можете скачивать файлы