Последнее из V.I.P.-раздела

25-Сен
25-Сен
25-Сен
25-Сен
25-Сен
25-Сен
25-Сен
25-Сен
25-Сен
25-Сен
25-Сен
25-Сен
25-Сен
25-Сен
25-Сен
25-Сен
25-Сен
25-Сен
25-Сен
25-Сен

Новости о коронавирусе

Дмитрий Охрименко - Разработка Windows Store приложений с JavaScript и HTML5 (2013)

Ответить на тему
 
Автор Сообщение

Yulya ®

-Дмитрий Охрименко - Разработка Windows Store приложений с JavaScript и HTML5 (2013)- Автор (режиссер): Дмитрий Охрименко
Название: Разработка Windows Store приложений с JavaScript и HTML5
Год выпуска: 2013
Жанр: Видео курс
Продолжительность: 01:45:10
Качество видео: DVDRip
Видеокодек: AVC1/H.264
Битрейт видео: ~50 Kbps
Размер кадра: 1280*720
Аудиокодек: AAC
Битрейт аудио: 44,100 Hz, 2 Ch, 16 bits, 1411 Kbps
Описание:
После просмотра этого короткого видео курса Вы получите общее представление о том, как происходит разработка Windows Store приложений используя HTML5 и JavaScript. Узнаете о типах проектов и их структуру, сможете иcпользoвать Windows Store элементы управления и раccмoтрите oснoвные этапы жизненного циклa прилoжения.
Каждый урок состоит из:
-видео;
-презентация;
-краткий конспект урока;
-практические примеры для самостоятельной работы в Visual Studio 2012.
Не забудьте скачать материалы урока - презентацию, краткий конспект и практические примеры. Выполняйте задания. Это сделает Ваше обучение эффективным.
Вы можете обучаться находясь в любом удобном для Вас месте, любой точке мира. С помощью прилагагающихся учебных материалов Вы будете систематизировано получать практические знания под четкие и понятные инструкции нашего опытного тренера.

MediaInfo

Общее
Формат : MPEG-4
Профиль формата : Base Media / Version 2
Идентификатор кодека : mp42
Размер файла : 166 Мбайт
Продолжительность : 1 ч. 45 м.
Общий поток : 221 Кбит/сек
Дата кодирования : UTC 2013-05-13 07:54:56
Дата пометки : UTC 2013-05-13 07:54:56
Видео
Идентификатор : 1
Формат : AVC
Формат/Информация : Advanced Video Codec
Профиль формата : [url=mailto:High@L3.1]High@L3.1[/url]
Параметр CABAC формата : Да
Параметр ReFrames формата : 4 кадра
Параметр GOP формата : M=1, N=75
Идентификатор кодека : avc1
Идентификатор кодека/Информация : Advanced Video Coding
Продолжительность : 1 ч. 45 м.
Продолжительность оригинала : 1 ч. 45 м.
Вид битрейта : Переменный
Битрейт : 126 Кбит/сек
Ширина : 1280 пикселей
Высота : 720 пикселей
Соотношение сторон : 16:9
Режим частоты кадров : Постоянный
Частота кадров : 15,000 кадров/сек
Цветовое пространство : YUV
Субдискретизация насыщенности : 4:2:0
Битовая глубина : 8 бит
Тип развёртки : Прогрессивная
Бит/(Пиксели*Кадры) : 0.009
Размер потока : 94,4 Мбайт (57%)
Размер потока оригинала : 94,4 Мбайт (57%)
Язык : English
Дата кодирования : UTC 2013-05-13 07:54:56
Дата пометки : UTC 2013-05-13 07:54:56
mdhd_Duration : 6310118
Основные цвета : BT.709
Характеристики трансфера : BT.709
Коэффициенты матрицы : BT.709
Аудио
Идентификатор : 2
Формат : AAC
Формат/Информация : Advanced Audio Codec
Профиль формата : LC
Идентификатор кодека : 40
Продолжительность : 1 ч. 45 м.
Продолжительность оригинала : 1 ч. 45 м.
Вид битрейта : Постоянный
Битрейт : 93,3 Кбит/сек
Каналы : 2 канала
Расположение каналов : Front: L R
Частота : 44,1 КГц
Метод сжатия : С потерями
Размер потока : 70,3 Мбайт (42%)
Размер потока оригинала : 70,3 Мбайт (42%)
Язык : Russian
Дата кодирования : UTC 2013-05-13 07:54:56
Дата пометки : UTC 2013-05-13 07:54:56
mdhd_Duration : 6319993
Скриншоты:
Скачать .torrent

Для того, чтобы скачать торрент-файл

Дмитрий Охрименко - Разработка Windows Store приложений с JavaScript и HTML5 (2013)

с нашего сайта, Вам необходимо Войти на сайт под своим логином! Если у Вас ещё нет логина, тогда Вам нужно сначала Зарегистрироваться!

Как скачивать? · Что такое торрент? · Рейтинг и ограничения

Показать сообщения:    
Ответить на тему

Дмитрий Охрименко - Разработка Windows Store приложений с JavaScript и HTML5 (2013) скачать торрент (torrent), видеоуроки, тренинги, обучающее видео и видеокурсы

Текущее время: Сегодня 10:14

Часовой пояс: GMT + 4



Вы не можете начинать темы
Вы не можете отвечать на сообщения
Вы не можете редактировать свои сообщения
Вы не можете удалять свои сообщения
Вы не можете голосовать в опросах
Вы не можете прикреплять файлы к сообщениям
Вы не можете скачивать файлы