RusTuts.com - Сборник видеоподкастов от RusTuts.com v1.0 (2013)

Ответить на тему
 
Автор Сообщение

Yulya ®

-RusTuts.com - Сборник видеоподкастов от RusTuts.com v1.0 (2013)- Автор (режиссер): RusTuts.com
Название: Сборник видеоподкастов от RusTuts.com v1.0
Год выпуска: 2013
Жанр: Работа со звуком
Язык: Руcский
Продолжительность: 03:41:40
Качество видео: PCRec
Видеокодек: AVC/H.264
Битрейт видео: ~1 824 Kbps, 23.976 fps
Размер кадра: 1280x720, 16:9
Аудиокодек: AAC
Битрейт аудио: ~192 Kbps, 2 channels, 44.1 KHz
Описание: Просмотрев “Сборник видеоподкастов от RusTuts.com”, Вы узнаете:
- Как определять частотные конфликты;
- Как сделать звучание широким;
- Технику mid-side эквализации;
- Как делать современный мастеринг -3 dB RMS;
- Про сравнение студийных мониторов;
- Как делать мастеринг с помощью плагинов FabFilter Pro.

Содержание:

Введение
1. Легендарный звукорежиссер Chris Lord-Alge
2. Интервью с Andi Vax
3. Основы сведения. Теоретическая часть
4. Секреты звукорежиссера Dave Pensado (Beyonce, P!nk) (Как превратить моно в стерео)
5. Как сохранять объективность воcприятия в процессе сведения
6. Как использовать эталонные миксы
Работа с частотами
1. Что такое частотный конфликт
2. Как определять частотные конфликты
3. Как грамотно уплотнить низкие частоты
4. Как работает Waves RBass
5. Определение желаемого уровня низких частот
Работа со стерео-образом
1. Как сделать звучание широким ч1
2. Как сделать звучание широким ч2
3. Как сделать звучание широким ч3
4. Техника mid-side эквализации
Мастеринг
1. Современный мастеринг. -3 dB RMS
2. Как сделать ваши миксы громкими
3. Мастеринг с помощью плагинов FabFilter Pro
4. Мастеринг с помощью плагинов FabFilter Pro ч.2
5. Как определить объекивную громкость микса
Обзоры оборудования и плагинов
1. Сравнение студийных мониторов
2. Сравнение звуковых интерфейсов
3. Хитрый деессинг
4. Обзор уникального плагина для обработки вокала

MediaInfo:

General
Complete name : H:\Фильмы\RusTuts.com - Сборник видеоподкастов от RusTuts.com\content\00\video\01.mp4
Format : MPEG-4
Format profile : Base Media / Version 2
Codec ID : mp42
File size : 65.5 MiB
Duration : 4mn 32s
Overall bit rate : 2 018 Kbps
Encoded date : UTC 2012-11-24 12:48:49
Tagged date : UTC 2012-11-24 12:48:49
gsst : 0
gstd : 272300
gssd : BADC23A4AHH1374094011674072
gshh : r10---sn-n8v7ln7r.c.youtube.com
Video
ID : 1
Format : AVC
Format/Info : Advanced Video Codec
Format profile : [url=mailto:High@L3.1]High@L3.1[/url]
Format settings, CABAC : Yes
Format settings, ReFrames : 1 frame
Codec ID : avc1
Codec ID/Info : Advanced Video Coding
Duration : 4mn 32s
Bit rate mode : Variable
Bit rate : 1 824 Kbps
Maximum bit rate : 4 103 Kbps
Width : 1 280 pixels
Height : 720 pixels
Display aspect ratio : 16:9
Frame rate mode : Constant
Frame rate : 23.976 fps
Color space : YUV
Chroma subsampling : 4:2:0
Bit depth : 8 bits
Scan type : Progressive
Bits/(Pixel*Frame) : 0.083
Stream size : 59.2 MiB (90%)
Tagged date : UTC 2012-11-24 12:48:49
Audio
ID : 2
Format : AAC
Format/Info : Advanced Audio Codec
Format version : Version 4
Format profile : LC
Format settings, SBR : No
Codec ID : 40
Duration : 4mn 32s
Bit rate mode : Variable
Bit rate : 192 Kbps
Maximum bit rate : 201 Kbps
Channel(s) : 2 channels
Channel positions : Front: L R
Sampling rate : 44.1 KHz
Stream size : 6.23 MiB (10%)
Title : IsoMedia File Produced by Google, 5-11-2011
Encoded date : UTC 2012-11-24 12:48:49
Tagged date : UTC 2012-11-24 12:48:49
Скачать .torrent

Для того, чтобы скачать торрент-файл

RusTuts.com - Сборник видеоподкастов от RusTuts.com v1.0 (2013)

с нашего сайта, Вам необходимо Войти на сайт под своим логином! Если у Вас ещё нет логина, тогда Вам нужно сначала Зарегистрироваться!

Как скачивать? · Что такое торрент? · Рейтинг и ограничения

Показать сообщения:    
Ответить на тему

RusTuts.com - Сборник видеоподкастов от RusTuts.com v1.0 (2013) скачать торрент (torrent), видеоуроки, тренинги, обучающее видео и видеокурсы

Текущее время: Сегодня 05:56

Часовой пояс: GMT + 4



Вы не можете начинать темы
Вы не можете отвечать на сообщения
Вы не можете редактировать свои сообщения
Вы не можете удалять свои сообщения
Вы не можете голосовать в опросах
Вы не можете прикреплять файлы к сообщениям
Вы не можете скачивать файлы