Последнее из V.I.P.-раздела

25-Сен
25-Сен
25-Сен
25-Сен
25-Сен
25-Сен
25-Сен
25-Сен
25-Сен
25-Сен
25-Сен
25-Сен
25-Сен
25-Сен
25-Сен
25-Сен
25-Сен
25-Сен
25-Сен
25-Сен

Новости о коронавирусе

RusTuts.com - Сведение и мастеринг на реальном примере (2012)

Ответить на тему
 
Автор Сообщение

Yulya ®

-RusTuts.com - Сведение и мастеринг на реальном примере (2012)- Автор (режиссер): RusTuts.com
Название: Сведение и мастеринг на реальном примере
Год выпуска: 2012
Жанр: Работа со звуком
Язык: Русский
Продолжительность: 03:41:40
Качество видео: PCRec
Видеокодек: AVC/H.264
Битрейт видео: ~577 Kbps, 30.000 fps
Размер кадра: 1440x900, 1.600
Аудиокодек: AAC
Битрейт аудио: 235 Kbps (CBR), 2 channels, 44.1 KHz
Описание: Изучив курс «Сведение и мастеринг на реальном примере», Вы научитесь:
- Настраивать идеальный баланс сочетания бочки и саббаса;
- Добиваться звучания ярких и жирных синтов в Ваших миксах;
- Добиваться объемных, широких, хорошо читающихся в миксе пэдов;
- Сведению спецэффектов для их плавной посадки в микс;
- Получать чистые и прозрачные высокие частоты.

Содержание:

00. Введение
01. Подготовка к работе
02. Ударные. ч.1
03. Ударные. ч.2 (Как превратить моно в стерео)
04. Бас. ч.1
05. Как сделать сайдчейн
06. Бас. ч.2 (Стерео саб бас)
07. Элементы заднего плана
08. Инструменты переднего плана
09. Вокал
10. Несколько советов по рабочему процессу
11. Подготовка к динамической обработке
12. Группы и их применение
13. Работа с группой ударных
14. Дальнейшие доработки
15. Подготовка к работе с пространством
16. Работа с ревербом и дилеем
17. Ведущий вокал
18. Зачем срезать 20 Гц
19. Эксайтер на мастере
20. Расширение стерео
21. Многополосная динамика
22. Многополосный эксайтер
23. Максимайзер
24. «Аналоговые» клипы
25. Последние штрихи
26. Экспорт
27. Доработки
28. Заключение

MediaInfo:

General
Complete name : E:\TORRENTS.RU\RusTuts.com - Сведение и мастеринг на реальном примере\00. Введение.mp4
Format : MPEG-4
Format profile : Base Media / Version 2
Codec ID : mp42
File size : 56.4 MiB
Duration : 9mn 13s
Overall bit rate mode : Variable
Overall bit rate : 855 Kbps
Encoded date : UTC 2012-08-09 04:45:18
Tagged date : UTC 2012-08-09 04:45:18
Video
ID : 1
Format : AVC
Format/Info : Advanced Video Codec
Format profile : [url=mailto:High@L4.1]High@L4.1[/url]
Format settings, CABAC : Yes
Format settings, ReFrames : 4 frames
Codec ID : avc1
Codec ID/Info : Advanced Video Coding
Duration : 9mn 13s
Source duration : 9mn 13s
Bit rate mode : Variable
Bit rate : 577 Kbps
Maximum bit rate : 20.0 Mbps
Width : 1 440 pixels
Height : 900 pixels
Display aspect ratio : 1.600
Frame rate mode : Constant
Frame rate : 30.000 fps
Standard : NTSC
Color space : YUV
Chroma subsampling : 4:2:0
Bit depth : 8 bits
Scan type : Progressive
Bits/(Pixel*Frame) : 0.015
Stream size : 38.1 MiB (68%)
Source stream size : 40.7 MiB (72%)
Language : English
Encoded date : UTC 2012-08-09 04:45:18
Tagged date : UTC 2012-08-09 04:45:18
mdhd_Duration : 553420
Color primaries : BT.709
Transfer characteristics : BT.709
Matrix coefficients : BT.709
Audio
ID : 2
Format : AAC
Format/Info : Advanced Audio Codec
Format profile : LC
Codec ID : 40
Duration : 9mn 13s
Source duration : 9mn 13s
Bit rate mode : Constant
Bit rate : 235 Kbps
Channel(s) : 2 channels
Channel positions : Front: L R
Sampling rate : 44.1 KHz
Compression mode : Lossy
Stream size : 15.5 MiB (27%)
Source stream size : 15.5 MiB (27%)
Language : English
Encoded date : UTC 2012-08-09 04:45:18
Tagged date : UTC 2012-08-09 04:45:18
mdhd_Duration : 553501
Скриншоты:
Скачать .torrent

Для того, чтобы скачать торрент-файл

RusTuts.com - Сведение и мастеринг на реальном примере (2012)

с нашего сайта, Вам необходимо Войти на сайт под своим логином! Если у Вас ещё нет логина, тогда Вам нужно сначала Зарегистрироваться!

Как скачивать? · Что такое торрент? · Рейтинг и ограничения

Показать сообщения:    
Ответить на тему

RusTuts.com - Сведение и мастеринг на реальном примере (2012) скачать торрент (torrent), видеоуроки, тренинги, обучающее видео и видеокурсы

Текущее время: Сегодня 09:57

Часовой пояс: GMT + 4



Вы не можете начинать темы
Вы не можете отвечать на сообщения
Вы не можете редактировать свои сообщения
Вы не можете удалять свои сообщения
Вы не можете голосовать в опросах
Вы не можете прикреплять файлы к сообщениям
Вы не можете скачивать файлы