Михаил Базаров - Создание сайта на 1С Битрикс с нуля до полного запуска (2013)

Ответить на тему
 
Автор Сообщение

Yulya ®

-Михаил Базаров - Создание сайта на 1С Битрикс с нуля до полного запуска (2013)- Автор (режиссер): Михаил Базаров
Название: Создание сайта на 1С Битрикс с нуля до полного запуска
Год выпуска: 2013
Жанр: Обучающее видео
Продолжительность: ~ 06:00:00
Качество видео: PCRec
Видеокодек: MPEG-4
Битрейт видео: ~ 771 - ~ 2342 Kbps
Размер кадра: 1280 x 720
Аудиокодек: AAC, 2 channels
Битрейт аудио: ~ 128 Kbps
Описание:
Данные уроки предназначены в первую очередь для начинающих битрикс разработчиков. В процессе создания сайта используются только штатные возможности битрикс "из коробки". Не изобретаются велосипеды, костыли и собственные компоненты. Исключительно возможностями битрикс - создается и наполняется сайт.

Содержание:

Видеоурок №1: вводный. рассматриваем что мы будем делать, как и на чем.
Видеоурок №2: верстка макета на HTML/CSS в этом уроке создаем простой скелет будущего сайта.
Видеоурок №3: установка битрикс на виртуальную машину.
Видеоурок №4: создаем шаблон битрикс из HTML/CSS макета сайта.
Видеоурок №5: создание меню. Рассказываю как работает меню и что такое шаблон компонента.
Видеоурок №6: создаем простые инфоблоки выводим на сайт и верстаем внешний вид.
Видеоурок №7: включаемые области в битрикс.
Видеоурок №8: создание слайдера из инфоблока в битрикс.
Видеоурок №9: наводим марафет на сайте.
Видеоурок №10: создание каталога товаров со свойствами.
Видеоурок №11: перенос сайта на хостинг.
Видеоурок №12: верстка компонента "каталог" в битрикс.
Видеоурок №13: выводим анонсы каталога и немного про поисковую оптимизацию сайта на битрикс.
Видеоурок №14: послесловие и немного тупняка с Яндексом.

MI:

Общее
Полное имя : Создание сайта на битрикс\3_bitrixsetup.mp4
Формат : MPEG-4
Профиль формата : Base Media / Version 2
Идентификатор кодека : mp42
Размер файла : 75,0 Мбайт
Продолжительность : 11 м.
Режим общего битрейта : Переменный
Общий поток : 895 Кбит/сек
Дата кодирования : UTC 2013-10-14 12:00:49
Дата пометки : UTC 2013-10-14 12:00:49
Программа кодирования : FormatFactory
Видео
Идентификатор : 201
Формат : MPEG-4 Visual
Профиль формата : Simple@L1
Параметр BVOP формата : Нет
Параметр QPel формата : Нет
Параметр GMC формата : Без точки перехода
Параметр матрицы формата : Default (H.263)
Идентификатор кодека : 20
Продолжительность : 11 м.
Вид битрейта : Переменный
Битрейт : 771 Кбит/сек
Максимальный битрейт : 15,7 Мбит/сек
Ширина : 1280 пикселей
Высота : 720 пикселей
Соотношение сторон : 16:9
Режим частоты кадров : Постоянный
Частота кадров : 26,009 кадров/сек
Цветовое пространство : YUV
Субдискретизация насыщенности : 4:2:0
Битовая глубина : 8 бит
Тип развёртки : Прогрессивная
Метод сжатия : С потерями
Бит/(Пиксели*Кадры) : 0.032
Размер потока : 64,5 Мбайт (86%)
Библиотека кодирования : Lavc53.8.0
Дата кодирования : UTC 2013-10-14 12:00:49
Дата пометки : UTC 2013-10-14 12:00:50
Аудио
Идентификатор : 101
Формат : AAC
Формат/Информация : Advanced Audio Codec
Профиль формата : LC
Идентификатор кодека : 40
Продолжительность : 11 м.
Вид битрейта : Переменный
Битрейт : 123 Кбит/сек
Максимальный битрейт : 160 Кбит/сек
Каналы : 2 канала
Расположение каналов : Front: L R
Частота : 44,1 КГц
Метод сжатия : С потерями
Размер потока : 10,3 Мбайт (14%)
Дата кодирования : UTC 2013-10-14 12:00:50
Дата пометки : UTC 2013-10-14 12:00:50-Общее
Полное имя : Создание сайта на битрикс\6_includes.mp4
Формат : MPEG-4
Профиль формата : Base Media / Version 2
Идентификатор кодека : mp42
Размер файла : 420 Мбайт
Продолжительность : 23 м.
Режим общего битрейта : Переменный
Общий поток : 2469 Кбит/сек
Дата кодирования : UTC 2013-10-14 13:55:18
Дата пометки : UTC 2013-10-14 13:55:18
Программа кодирования : FormatFactory
Видео
Идентификатор : 201
Формат : MPEG-4 Visual
Профиль формата : Simple@L1
Параметр BVOP формата : Нет
Параметр QPel формата : Нет
Параметр GMC формата : Без точки перехода
Параметр матрицы формата : Default (H.263)
Идентификатор кодека : 20
Продолжительность : 23 м.
Вид битрейта : Переменный
Битрейт : 2342 Кбит/сек
Максимальный битрейт : 38,5 Мбит/сек
Ширина : 1280 пикселей
Высота : 720 пикселей
Соотношение сторон : 16:9
Режим частоты кадров : Постоянный
Частота кадров : 30,203 кадров/сек
Цветовое пространство : YUV
Субдискретизация насыщенности : 4:2:0
Битовая глубина : 8 бит
Тип развёртки : Прогрессивная
Метод сжатия : С потерями
Бит/(Пиксели*Кадры) : 0.084
Размер потока : 398 Мбайт (95%)
Библиотека кодирования : Lavc53.8.0
Дата кодирования : UTC 2013-10-14 13:55:18
Дата пометки : UTC 2013-10-14 13:55:21
Аудио
Идентификатор : 101
Формат : AAC
Формат/Информация : Advanced Audio Codec
Профиль формата : LC
Идентификатор кодека : 40
Продолжительность : 23 м.
Вид битрейта : Переменный
Битрейт : 125 Кбит/сек
Максимальный битрейт : 158 Кбит/сек
Каналы : 2 канала
Расположение каналов : Front: L R
Частота : 44,1 КГц
Метод сжатия : С потерями
Размер потока : 21,3 Мбайт (5%)
Дата кодирования : UTC 2013-10-14 13:55:20
Дата пометки : UTC 2013-10-14 13:55:21
Скачать .torrent

Для того, чтобы скачать торрент-файл

Михаил Базаров - Создание сайта на 1С Битрикс с нуля до полного запуска (2013)

с нашего сайта, Вам необходимо Войти на сайт под своим логином! Если у Вас ещё нет логина, тогда Вам нужно сначала Зарегистрироваться!

Как скачивать? · Что такое торрент? · Рейтинг и ограничения

Показать сообщения:    
Ответить на тему

Михаил Базаров - Создание сайта на 1С Битрикс с нуля до полного запуска (2013) скачать торрент (torrent), видеоуроки, тренинги, обучающее видео и видеокурсы

Текущее время: Сегодня 05:48

Часовой пояс: GMT + 4



Вы не можете начинать темы
Вы не можете отвечать на сообщения
Вы не можете редактировать свои сообщения
Вы не можете удалять свои сообщения
Вы не можете голосовать в опросах
Вы не можете прикреплять файлы к сообщениям
Вы не можете скачивать файлы