Евгений Лебедев - Сайтостроение для начинающих или как создать свой первый сайт (2012)

Ответить на тему
 
Автор Сообщение

Yulya ®

-- Автор (режиссер): Евгений Лебедев
Название: Сайтостроение для начинающих или как создать свой первый сайт
Год выпуска: 2012
Жанр: Обучающий видеокурс
Продолжительность: 08:27:11
Качество видео: PCRec
Видеокодек: AVC
Битрейт видео: ~15fps 524kbps
Размер кадра: 960x720
Аудиокодек: AAC
Битрейт аудио: 44100Hz mono 75kbps
Доп. материалы: Есть
Описание:
Видеокурс по работе с программой Web Page Maker.
Данный видеокурс предназначен для начинающих Web-мастеров и даст Вам начальные знания для создания собственного сайта. Автор курса расскажет вам об основах сайтостроения и аспектах веб дизайна. Из курса Вы узнаете как создать свой первый сайт, как зарегистроваться на хостинге, как создавать различные элементы при помощи тегов и многое другое.
И совершенно не важно сколько Вам лет, и не нужно быть дизайнером или художником, чтобы с помощью приведённого курса научиться создавать свои сайты.
Что-бы Вам было легче начать сайтостроение и воплотить полученные знания в реальный проект, то на этот случай в курсе присутствуют исходники (шаблоны) материалов рассмотренных в курсе тем.

Дополнительная информация:

Содержание видеокурса:
01. Выбираем хостинг
02. Регистрация на хостинге
03. Панель управления на хостинге
04. Заполнение страницы контентом
05. Панель навигации и счётчики
06. Работа с Видео роликами (4 части)
07. Создаём почту домена
08. Регистрация домена и смена тарифа
09. Создаём панель навигации
10. Создаём собственные кнопки
11. Размещение файлов сайта на хостинге (WEB)
12. Размещение файлов сайта на хостинге (FTP)
13. Размещение через собственный FTP-клиент
14. Фоновый рисунок на страницах сайта
15. Свойства фоновых рисунков
16. Иконка сайта (2 части)
17. Мета теги (2 части)
18. Импорт страниц сайтов
19. Работа над ошибками
20. Создание картинок для сайта в Фотошоп

MI

Общее
Полное имя : D:\Андрей\Сайтостроение для начинающи
Формат : MPEG-4
Профиль формата : Base Media / Version 2
Идентификатор кодека : mp42
Размер файла : 111 Мбайт
Режим общего битрейта : Переменный
Общий поток : 603 Кбит/сек
Дата кодирования : UTC 2012-06-28 16:28:04
Дата пометки : UTC 2012-06-28 16:28:04
gsst : 0
gstd : 1539250
gssd : B4A7DD184MH1381730393835187
gshh : r4---sn-5hn7su76.c.youtube.com
Видео
Идентификатор : 1
Формат : AVC
Формат/Информация : Advanced Video Codec
Профиль формата : [url=mailto:High@L3.1]High@L3.1[/url]
Параметр CABAC формата : Да
Параметр ReFrames формата : 1 кадр
Идентификатор кодека : avc1
Идентификатор кодека/Информация : Advanced Video Coding
Битрейт : 524 Кбит/сек
Максимальный битрейт : 6472 Кбит/сек
Ширина : 960 пикселей
Высота : 720 пикселей
Соотношение сторон : 4:3
Режим частоты кадров : Постоянный
Частота кадров : 15,000 кадров/сек
Цветовое пространство : YUV
Субдискретизация насыщенности : 4:2:0
Битовая глубина : 8 бит
Тип развёртки : Прогрессивная
Бит/(Пиксели*Кадры) : 0.051
Размер потока : 96,2 Мбайт (87%)
Дата пометки : UTC 2012-06-28 16:28:05
Аудио
Идентификатор : 2
Формат : AAC
Формат/Информация : Advanced Audio Codec
Профиль формата : LC
Идентификатор кодека : 40
Вид битрейта : Переменный
Битрейт : 75,0 Кбит/сек
Максимальный битрейт : 89,1 Кбит/сек
Каналы : 1 канал
Расположение каналов : Front: C
Частота : 44,1 КГц
Метод сжатия : С потерями
Размер потока : 13,9 Мбайт (13%)
Заголовок : IsoMedia File Produced by Google, 5-11-2011
Дата кодирования : UTC 2012-06-28 16:28:04
Дата пометки : UTC 2012-06-28 16:28:05
Скачать .torrent

Для того, чтобы скачать торрент-файл

Евгений Лебедев - Сайтостроение для начинающих или как создать свой первый сайт (2012)

с нашего сайта, Вам необходимо Войти на сайт под своим логином! Если у Вас ещё нет логина, тогда Вам нужно сначала Зарегистрироваться!

Как скачивать? · Что такое торрент? · Рейтинг и ограничения

Показать сообщения:    
Ответить на тему

Евгений Лебедев - Сайтостроение для начинающих или как создать свой первый сайт (2012) скачать торрент (torrent), видеоуроки, тренинги, обучающее видео и видеокурсы

Текущее время: Сегодня 07:50

Часовой пояс: GMT + 4



Вы не можете начинать темы
Вы не можете отвечать на сообщения
Вы не можете редактировать свои сообщения
Вы не можете удалять свои сообщения
Вы не можете голосовать в опросах
Вы не можете прикреплять файлы к сообщениям
Вы не можете скачивать файлы