Евгений Карташов - 5 экшенов для ретуши (2013)

Ответить на тему
 
Автор Сообщение

Yulya ®

-Евгений Карташов - 5 экшенов для ретуши (2013)- Автор (режиссер): Евгений Карташов
Название: 5 экшенов для ретуши
Год выпуска: 2013
Жанр: Обучающий видеоурок
Продолжительность: 00:08:27
Качество видео: PCRec
Видеокодек: AVC
Битрейт видео: ~10fps 1716kbps
Размер кадра: 1920x1040
Аудиокодек: AAC
Битрейт аудио: 44100Hz stereo 192kbps
Доп. материалы: Есть
Описание:
Урок от Евгения Карташова. Ретушь. Ретушь с использованием экшенов, которые он сам же и написал.

Дополнительная информация

"Процесс ретуши, как правило, занимает довольно много времени. Конечно, полностью исключить ручную работу нельзя, но можно автоматизировать некоторые операции, например, создание различных корректирующих слоев или группы слоев для ретуши по методу частотного разложения.
Специально для вас я подготовил пять экшенов для ретуши:
- Экшен для создания структуры слоев для ретуши методом частотного разложения.
- Экшен для выравнивания светотеневого рисунка, приглушения жестких бликов и смягчения глубоких теней методом Inverted High Pass.
- Быстрое удаление черных пор и точек.
- Улучшение текстуры радужной оболочки глаз.
- Осветление глаз.
Пользоваться экшенами очень просто, поэтому я не стал вдаваться в детали".Евгений Карташов

MI

Общее
Полное имя : D:\Андрей\5 экшенов для ретуши\5 экшенов для ретуши.mp4
Формат : MPEG-4
Профиль формата : Base Media / Version 2
Идентификатор кодека : mp42
Размер файла : 116 Мбайт
Продолжительность : 8 м. 27 с.
Режим общего битрейта : Переменный
Общий поток : 1910 Кбит/сек
Дата кодирования : UTC 2013-09-25 23:49:52
Дата пометки : UTC 2013-09-25 23:49:52
gsst : 0
gstd : 507958
gssd : B2E3D9B44HH1381755589842781
gshh : r1---sn-gvnuxaxjvh-n8vl.c.youtube.com
Видео
Идентификатор : 1
Формат : AVC
Формат/Информация : Advanced Video Codec
Профиль формата : [url=mailto:High@L4.0]High@L4.0[/url]
Параметр CABAC формата : Да
Параметр ReFrames формата : 1 кадр
Идентификатор кодека : avc1
Идентификатор кодека/Информация : Advanced Video Coding
Продолжительность : 8 м. 27 с.
Битрейт : 1716 Кбит/сек
Максимальный битрейт : 7912 Кбит/сек
Ширина : 1920 пикселей
Высота : 1040 пикселей
Соотношение сторон : 1,85:1
Режим частоты кадров : Постоянный
Частота кадров : 10,000 кадров/сек
Цветовое пространство : YUV
Субдискретизация насыщенности : 4:2:0
Битовая глубина : 8 бит
Тип развёртки : Прогрессивная
Бит/(Пиксели*Кадры) : 0.086
Размер потока : 104 Мбайт (90%)
Дата пометки : UTC 2013-09-25 23:50:09
Аудио
Идентификатор : 2
Формат : AAC
Формат/Информация : Advanced Audio Codec
Профиль формата : LC
Идентификатор кодека : 40
Продолжительность : 8 м. 27 с.
Вид битрейта : Переменный
Битрейт : 192 Кбит/сек
Максимальный битрейт : 203 Кбит/сек
Каналы : 2 канала
Расположение каналов : Front: L R
Частота : 44,1 КГц
Метод сжатия : С потерями
Размер потока : 11,6 Мбайт (10%)
Заголовок : IsoMedia File Produced by Google, 5-11-2011
Дата кодирования : UTC 2013-09-25 23:50:04
Дата пометки : UTC 2013-09-25 23:50:09
Скачать .torrent

Для того, чтобы скачать торрент-файл

Евгений Карташов - 5 экшенов для ретуши (2013)

с нашего сайта, Вам необходимо Войти на сайт под своим логином! Если у Вас ещё нет логина, тогда Вам нужно сначала Зарегистрироваться!

Как скачивать? · Что такое торрент? · Рейтинг и ограничения

Показать сообщения:    
Ответить на тему

Евгений Карташов - 5 экшенов для ретуши (2013) скачать торрент (torrent), видеоуроки, тренинги, обучающее видео и видеокурсы

Текущее время: Сегодня 16:19

Часовой пояс: GMT + 4



Вы не можете начинать темы
Вы не можете отвечать на сообщения
Вы не можете редактировать свои сообщения
Вы не можете удалять свои сообщения
Вы не можете голосовать в опросах
Вы не можете прикреплять файлы к сообщениям
Вы не можете скачивать файлы