Андрей Масалович - Взломать за 60 секунд (2013)

Ответить на тему
 
Автор Сообщение

Yulya ®

-Андрей Масалович - Взломать за 60 секунд (2013)- Автор (режиссер): Андрей Масалович
Название: Взломать за 60 секунд
Год выпуска: 2013
Жанр: Обучающий, Компьютерная безопасность
Продолжительность: 01:37:00
Качество видео: PCRec
Видеокодек: MPEG4 (AVC)
Битрейт видео: ~926 Kbps
Размер кадра: 1280х720
Аудиокодек: AAC
Битрейт аудио: 192 Kbps, 2 ch
Описание:
Андрей Масалович – кандидат физико-математических наук, президент Консорциума Инфорус, руководитель ряда успешных проектов по аналитическому оснащению банков, ФПГ, крупных торговых сетей, государственных организаций. В прошлом – подполковник ФАПСИ, лауреат стипендии РАН "Выдающийся ученый России".
Автор многочисленных публикаций и ведущий семинаров по проблемам поиска и анализа данных в ряде университетов России и США (АНХ, МГУ, МАИ, Harvard University, Stanford University, Georgia Tech University, Texas A&M). Эксперт РФФИ, INTAS, МТЦ ООН, АТЭС.

На вебинаре вы узнаете:

Какие задачи решает интернет-разведка
Наиболее типичные изъяны в вашей безопасности, которые будет использовать нападающий, чтобы получить доступ к конфиденциальной информации
Самые эффективные приемы обхода защиты
Как обеспечить собственную защищенность, не используя дорогостоящие и затратные методы
Как организовать мониторинг уязвимостей, утечек и угроз бизнесу и репутации
Почему это важно?
Информация, особенно составляющая коммерческую тайну, является одним из главных, дорогих и наиболее охраняемых ресурсов большинства организаций. Однако по статистике лишь 2% компаний могут обеспечить адекватную защиту своей конфиденциальной информации.
Практика интернет-разведки показывает, что даже 2% защищенных компаний – это слишком оптимистичная цифра. Арсенал опытного "охотника за информацией" насчитывает более 700 приемов, позволяющих добывать ценную информацию даже из защищенных разделов и внутренних хранилищ. Методы интернет-разведки во многих случаях позволяют добраться до приватной информации за считанные минуты.
Как обеспечить адекватную защиту своих данных? И как ее поддерживать без больших затрат на сложную и дорогостоящую инфраструктуру ИБ? Об этом и пойдет речь на вебинаре.
В программе вебинара:
Общие принципы и методология интернет-разведки
10 приемов, позволяющих получить доступ к вашим данным за 1 минуту без взлома защиты
Обзор приемов поиска в "невидимом Интернете"
Специализированные поисковые средства для "прогулок по невидимому Интернету"
Поисковая технология Avalanche

MediaInfo

General
Format : MPEG-4
Format profile : Base Media
Codec ID : isom
File size : 787 MiB
Duration : 1h 37mn
Overall bit rate : 1 125 Kbps
Tagged date : UTC 2013-10-10 06:11:09
Writing application : Lavf53.24.2
Video
ID : 1
Format : AVC
Format/Info : Advanced Video Codec
Format profile : [url=mailto:High@L3.1]High@L3.1[/url]
Format settings, CABAC : Yes
Format settings, ReFrames : 1 frame
Codec ID : avc1
Codec ID/Info : Advanced Video Coding
Duration : 1h 37mn
Bit rate mode : Variable
Bit rate : 926 Kbps
Width : 1 280 pixels
Height : 720 pixels
Display aspect ratio : 16:9
Frame rate mode : Constant
Frame rate : 30.000 fps
Color space : YUV
Chroma subsampling : 4:2:0
Bit depth : 8 bits
Scan type : Progressive
Bits/(Pixel*Frame) : 0.033
Stream size : 648 MiB (82%)
Audio
ID : 2
Format : AAC
Format/Info : Advanced Audio Codec
Format profile : LC
Codec ID : 40
Duration : 1h 37mn
Bit rate mode : Variable
Bit rate : 192 Kbps
Maximum bit rate : 200 Kbps
Channel(s) : 2 channels
Channel positions : Front: L R
Sampling rate : 44.1 KHz
Compression mode : Lossy
Stream size : 134 MiB (17%)
Скачать .torrent

Для того, чтобы скачать торрент-файл

Андрей Масалович - Взломать за 60 секунд (2013)

с нашего сайта, Вам необходимо Войти на сайт под своим логином! Если у Вас ещё нет логина, тогда Вам нужно сначала Зарегистрироваться!

Как скачивать? · Что такое торрент? · Рейтинг и ограничения

donvital

Большое спасибо!
Показать сообщения:    
Ответить на тему

Андрей Масалович - Взломать за 60 секунд (2013) скачать торрент (torrent), видеоуроки, тренинги, обучающее видео и видеокурсы

Текущее время: Сегодня 23:24

Часовой пояс: GMT + 4



Вы не можете начинать темы
Вы не можете отвечать на сообщения
Вы не можете редактировать свои сообщения
Вы не можете удалять свои сообщения
Вы не можете голосовать в опросах
Вы не можете прикреплять файлы к сообщениям
Вы не можете скачивать файлы