Последнее из V.I.P.-раздела

19-Ноя-19 06:59
19-Ноя-19 06:58
19-Ноя-19 06:54
19-Ноя-19 06:49
19-Ноя-19 06:47
19-Ноя-19 06:46
19-Ноя-19 06:37
19-Ноя-19 06:35
19-Ноя-19 06:30
19-Ноя-19 06:25

Роман Голосницкий - ВЕСЬ SONY VEGAS PRO 12 В ОДНОМ УРОКЕ (2013)

Ответить на тему
 
Автор Сообщение

Yulya ®

-Роман Голосницкий - ВЕСЬ SONY VEGAS PRO 12 В ОДНОМ УРОКЕ (2013)- Автор (режиссер): Роман Голосницкий
Название: ВЕСЬ SONY VEGAS PRO 12 В ОДНОМ УРОКЕ
Год выпуска: 2013
Жанр: Видеоурок
Продолжительность: 00:32:15
Качество видео: PCRec
Видеокодек: AVC
Битрейт видео: ~30fps 478kbps
Размер кадра: 798x480
Аудиокодек: AAC
Битрейт аудио: 44100Hz stereo 131kbps
Описание:
Посмотрите видео-тренинг по созданию произвольного свадебного трейлера (ролика) в программе Sony Vegas Pro 12. Овладейте видеомонтажом в профессиональной программе на конкретных примерах...Скриншоты:

MI

Общее
Полное имя : D:\Андрей\ВЕСЬ SONY VEGAS PRO 12 В ОДНОМ УРОКЕ.flv
Формат : Flash Video
Размер файла : 139 Мбайт
Продолжительность : 32 м.
Общий поток : 605 Кбит/сек
httphostheader : r5---sn-gvnuxaxjvh-n8vz.c.youtube.com
Видео
Формат : AVC
Формат/Информация : Advanced Video Codec
Профиль формата : [url=mailto:Main@L3.1]Main@L3.1[/url]
Параметр CABAC формата : Да
Параметр ReFrames формата : 3 кадра
Параметр GOP формата : M=1, N=60
Идентификатор кодека : 7
Продолжительность : 32 м.
Битрейт : 478 Кбит/сек
Ширина : 798 пикселей
Высота : 480 пикселей
Соотношение сторон : 1,663
Режим частоты кадров : Постоянный
Частота кадров : 30,000 кадров/сек
Цветовое пространство : YUV
Субдискретизация насыщенности : 4:2:0
Битовая глубина : 8 бит
Тип развёртки : Прогрессивная
Бит/(Пиксели*Кадры) : 0.041
Размер потока : 108 Мбайт (77%)
Аудио
Формат : AAC
Формат/Информация : Advanced Audio Codec
Профиль формата : LC
Идентификатор кодека : 10
Продолжительность : 32 м.
Битрейт : 131 Кбит/сек
Каналы : 2 канала
Расположение каналов : Front: L R
Частота : 44,1 КГц
Метод сжатия : С потерями
Размер потока : 29,7 Мбайт (21%)
Скачать .torrent

Для того, чтобы скачать торрент-файл

Роман Голосницкий - ВЕСЬ SONY VEGAS PRO 12 В ОДНОМ УРОКЕ (2013)

с нашего сайта, Вам необходимо Войти на сайт под своим логином! Если у Вас ещё нет логина, тогда Вам нужно сначала Зарегистрироваться!

Как скачивать? · Что такое торрент? · Рейтинг и ограничения

Показать сообщения:    
Ответить на тему

Роман Голосницкий - ВЕСЬ SONY VEGAS PRO 12 В ОДНОМ УРОКЕ (2013) скачать торрент (torrent), видеоуроки, тренинги, обучающее видео и видеокурсы

Текущее время: Сегодня 14:44

Часовой пояс: GMT + 4



Вы не можете начинать темы
Вы не можете отвечать на сообщения
Вы не можете редактировать свои сообщения
Вы не можете удалять свои сообщения
Вы не можете голосовать в опросах
Вы не можете прикреплять файлы к сообщениям
Вы не можете скачивать файлы