TheTunes.Ru & Ozo Effy - Экстремальный продакшн (2013)

Ответить на тему
 
Автор Сообщение

Yulya ®

-TheTunes.Ru & Ozo Effy - Экстремальный продакшн (2013)- Автор (режиссер): TheTunes.Ru & Ozo Effy
Название: Экстремальный продакшн
Год выпуска: 2013
Жанр: Работа со звуком
Язык: Русский
Продолжительность: 41:28:51
Качество видео: CamRip
Видеокодек: AVC/H.264
Битрейт видео: ~1 099 Kbps, 30.000 fps
Размер кадра: 1280x720, 16:9
Аудиокодек: AAC
Битрейт аудио: ~192 Kbps, 2 channels, 44.1 KHz
Описание:
Обучающий портал TheTunes.Ru и проект Ozo Effy представляют 10-ти недельный курс по написанию электронной музыки "Экстремальный продакшн"

Дополнительная информация:

Если:
- ты давно хочешь писать музыку, но не знаешь с чего начать;
- тебе тяжело самостоятельно разобраться во всех тонкостях продакшна;
- ты давно занимаешься продакшном, но твои работы не звучат на должном уровне;
- у тебя есть неудачный опыт обучения в школах с сомнительными преподавателями, у которых нет своих результатов;
- ты не знаешь, что делать со своими трекам, после окончания работы над ними;
- ты не владеешь навыками звукорежиссуры;
- ты занимаешься диджеингом, и понимаешь, что для роста необходимо начать писать музыку;
- у тебя куча других вопросов...
То курс "Экстремальный продакшн" для тебя

Содержание:

1.01. Введение в электронную музыку и цифровой звук
1.02. Инструменты создания электронной музыки
1.03. Синтез звука. Синтезаторы
1.04. Работа с библиотеками семплов, семплерами
1.05. Обработка звука
1.06. Частотная обработка
1.07. Динамическая обработка
1.08. Пространственная обработка. Reverb. Delay
1.09. Эффекты основанные на модуляции
1.10. Средства для анализа аудио материала
2.01. Основы
2.02. Создание партий барабанов и перкуссии
2.03. Создание басовых партий, многослойный бас
2.04. Подклады и атмосферы, многослойный подклад
2.05. Лидирующие синтезаторные партии (Lead)
2.06. Создание солирующего инструмента
2.07. Создание разгона
2.08. Создание и применение шумовых эффектов
2.09. Особенности создания ям
3.02. Обработка и сведение барабанов
3.03. Обработка и сведение басовых инструментов
3.04. Обработка и сведение подкладов и атмосфер
3.05. Лидирующие синтезаторные партии (Lead)
3.06. Обработка вокала
3.07. Автоматизация в треке
3.08. Мастеринг групповых каналов
3.09. Мастеринг всего проекта
3.10. Ответы на вопросы

MediaInfo:

General
Complete name : W:\Фильмы\TheTunes.Ru - Экстремальный продакшн\1.01. Введение в электронную музыку и цифровой звук.mp4
Format : MPEG-4
Format profile : Base Media / Version 2
Codec ID : mp42
File size : 1.17 GiB
Duration : 2h 9mn
Overall bit rate : 1 293 Kbps
Encoded date : UTC 2013-06-10 14:40:28
Tagged date : UTC 2013-06-10 14:40:28
gsst : 0
gstd : 7795170
gssd : B4A7DDAE6MH1377330051438435
gshh : r6---sn-4g57kuer.c.youtube.com
Video
ID : 1
Format : AVC
Format/Info : Advanced Video Codec
Format profile : [url=mailto:High@L3.1]High@L3.1[/url]
Format settings, CABAC : Yes
Format settings, ReFrames : 1 frame
Codec ID : avc1
Codec ID/Info : Advanced Video Coding
Duration : 2h 9mn
Bit rate mode : Variable
Bit rate : 1 099 Kbps
Maximum bit rate : 3 984 Kbps
Width : 1 280 pixels
Height : 720 pixels
Display aspect ratio : 16:9
Frame rate mode : Constant
Frame rate : 30.000 fps
Color space : YUV
Chroma subsampling : 4:2:0
Bit depth : 8 bits
Scan type : Progressive
Bits/(Pixel*Frame) : 0.040
Stream size : 1 021 MiB (85%)
Tagged date : UTC 2013-06-10 14:51:26
Audio
ID : 2
Format : AAC
Format/Info : Advanced Audio Codec
Format version : Version 4
Format profile : LC
Format settings, SBR : No
Codec ID : 40
Duration : 2h 9mn
Bit rate mode : Variable
Bit rate : 192 Kbps
Maximum bit rate : 202 Kbps
Channel(s) : 2 channels
Channel positions : Front: L R
Sampling rate : 44.1 KHz
Stream size : 178 MiB (15%)
Title : IsoMedia File Produced by Google, 5-11-2011
Encoded date : UTC 2013-06-10 14:48:46
Tagged date : UTC 2013-06-10 14:51:26
Скриншоты:
Скачать .torrent

Для того, чтобы скачать торрент-файл

TheTunes.Ru & Ozo Effy - Экстремальный продакшн (2013)

с нашего сайта, Вам необходимо Войти на сайт под своим логином! Если у Вас ещё нет логина, тогда Вам нужно сначала Зарегистрироваться!

Как скачивать? · Что такое торрент? · Рейтинг и ограничения

Показать сообщения:    
Ответить на тему

TheTunes.Ru & Ozo Effy - Экстремальный продакшн (2013) скачать торрент (torrent), видеоуроки, тренинги, обучающее видео и видеокурсы

Текущее время: Сегодня 04:36

Часовой пояс: GMT + 4



Вы не можете начинать темы
Вы не можете отвечать на сообщения
Вы не можете редактировать свои сообщения
Вы не можете удалять свои сообщения
Вы не можете голосовать в опросах
Вы не можете прикреплять файлы к сообщениям
Вы не можете скачивать файлы