iidsp - Командная строка Windows для "Чайников" (2010 - 2012)

Ответить на тему
 
Автор Сообщение

Yulya ®

-iidsp - Командная строка Windows для "Чайников" (2010 - 2012)- Автор (режиссер): iidsp.(xakep.ru), Е.Серов, MrErcheph, М.Сакулевич
Название: Командная строка Windows для "Чайников"
Год выпуска: 2010 - 2012
Жанр: Обучающий видеокурс
Продолжительность: 02:33:53
Качество видео: PCRec
Видеокодек: Xvid
Битрейт видео: ~874 Kbps 25fps
Размер кадра: 1024x768
Аудиокодек: MP3
Битрейт аудио: 48000Hz stereo 256kbps
Доп. материалы: Имеются
Описание:
В представленном видеокурсе присутствуют уроки разной сложности по работе в командной строке, как для начинающих, так и для более продвинутых ползователей. Обучение начинается с базовых сведений о "cmd", ее настройках, имеющихся командах и далее по возрастающей сложности работы с командной строкой! Многие возможности и функции управления операционной системой недоступны из графического интерфейса и поэтому "cmd" является единственным средством доступа к этим инструментам.

Дополнительная информация:

Содержание:
Урок 1. Базовые сведения о командной строке
Урок 2. Настройки командной строки
- часть 1. Настройки командной строки. Вкладка:''Общие''
- часть 2. Настройка командной строки. Вкладка: шрифт
- часть 3. Настройка командной строки. Вкладка: расположение
- часть 4. Настройка командной строки. Вкладка: цвета
- часть 5. Настройка командной строки: Сохранение настроек
Урок 3. Дополнительные настройки и возможности командной строки (3 части)
Урок 4. Работа с реестром (2 части)
Урок 5. Дефрагментация (2 части)
Урок 6. Работа с файлами и папками (4 части)
Урок 7. Шифрование данных через командную строку (Е.Серов)
Урок 8. Командная строка Windows [cmd] - (MrErcheph)
Урок 9. Видеоурок от М.Сакулевича:
- Настройка интерпретатора командной строки
- Работа с «Пакетными файлами» *.BAT или *.CMD.
- Программы, помогающие работать с файлами *.BAT или *.CMD.
- Выполние наборов команд.
- Настройка сети посредством BAT-файла.

MI

Общее
Полное имя : D:\Андрей\Командная строка Windows
Формат : AVI
Формат/Информация : Audio Video Interleave
Размер файла : 49,4 Мбайт
Общий поток : 1143 Кбит/сек
Программа кодирования : Lavf52.93.0
Видео
Идентификатор : 0
Формат : xvid
Идентификатор кодека : xvid
Битрейт : 874 Кбит/сек
Ширина : 1024 пикселя
Высота : 768 пикселей
Соотношение сторон : 4:3
Частота кадров : 25,000 кадров/сек
Бит/(Пиксели*Кадры) : 0.044
Размер потока : 37,8 Мбайт (76%)
Аудио
Идентификатор : 1
Формат : MPEG Audio
Версия формата : Version 1
Профиль формата : Layer 3
Режим : Joint stereo
Расширение режима : MS Stereo
Идентификатор кодека : 55
Идентификатор кодека/Подсказка : MP3
Вид битрейта : Постоянный
Битрейт : 256 Кбит/сек
Каналы : 2 канала
Частота : 48,0 КГц
Метод сжатия : С потерями
Размер потока : 11,1 Мбайт (22%)
Выравнивание : Соединение по промежуткам
Продолжительность промежутка : 24 мс. (0,60 видеокадр)
Время предзагрузки промежутка : 96 мс.
Библиотека кодирования : LAME3.98.4
Скачать .torrent

Для того, чтобы скачать торрент-файл

iidsp - Командная строка Windows для "Чайников" (2010 - 2012)

с нашего сайта, Вам необходимо Войти на сайт под своим логином! Если у Вас ещё нет логина, тогда Вам нужно сначала Зарегистрироваться!

Как скачивать? · Что такое торрент? · Рейтинг и ограничения

Показать сообщения:    
Ответить на тему

iidsp - Командная строка Windows для "Чайников" (2010 - 2012) скачать торрент (torrent), видеоуроки, тренинги, обучающее видео и видеокурсы

Текущее время: Сегодня 03:16

Часовой пояс: GMT + 4



Вы не можете начинать темы
Вы не можете отвечать на сообщения
Вы не можете редактировать свои сообщения
Вы не можете удалять свои сообщения
Вы не можете голосовать в опросах
Вы не можете прикреплять файлы к сообщениям
Вы не можете скачивать файлы