Последнее из V.I.P.-раздела

19-Ноя-19 06:59
19-Ноя-19 06:58
19-Ноя-19 06:54
19-Ноя-19 06:49
19-Ноя-19 06:47
19-Ноя-19 06:46
19-Ноя-19 06:37
19-Ноя-19 06:35
19-Ноя-19 06:30
19-Ноя-19 06:25

Денис Семеновых - Оптимизация компьютера по методу Трикстера (2013)

Ответить на тему
 
Автор Сообщение

Yulya ®

-Денис Семеновых - Оптимизация компьютера по методу Трикстера (2013)- Автор (режиссер): Денис Семеновых
Название: Оптимизация компьютера по методу Трикстера
Год выпуска: 2013
Жанр: обучающее видеокурс
Продолжительность: 02:04:11
Качество видео: PCRec
Видеокодек: MPEG4 Video
Битрейт видео: ~10fps 456kbps
Размер кадра: 640x480
Аудиокодек: AAC
Битрейт аудио: 44100Hz stereo 78kbps
Доп. материалы: Есть
Описание:
Большинство современных компьютеров показывают гораздо меньшую производительность, чем они на это способны. Более чем 90% компьютеров которые стоят у ваших друзей, коллег по работе работают в 2-3 раза медленней, чем они могли бы. Курс содержит более 30 видеоуроков, которые помогут Вам заставить ваш компьютер работать максимально. Вы изучите комплекс мер, которые надо проделывать хотя бы раз в месяц. И благодаря этим действиям ваш компьютер будет работать максимально быстро и поддерживаться в таком состоянии постоянно.
• Курс вам поможет если:
• Компьютер рано или поздно начинает тормозить, а то и вовсе зависает.
• Периодически вылезают всевозможные системные ошибки.
• Компьютер постепенно устаревает и перестает "тянуть" современные программы
• Компьютер вроде-бы недавно куплен, однако явно не справляется с поставленными задачами.

Дополнительная информация:

Содержание курса:
• 01 Вступление
• 02 Подготовка
• 03 Права администратора
• 04 Проверка целостности жестких дисков
• 05 Проверка файловых систем
• 06 Очистка
• 07 Дефрагментация
• 08 Визуальные эффекты
• 09 Автозапуск
• 10 Системные службы
• 11 Удаление программ
• 12 Файл подкачки
• 13 Дамп памяти
• 14 Дубликаты файлов
• 15 Важные рекоментдации
• 16 Перенос папки Мои документы
• 17 Температура
• 18 Проверка памяти
• 19 Проверка дисков
• 20 Java
• 21 Нежелательные программы
• 22 Заключение
• Бонусы:
• 1 Создание загрузочного диска
• 2 Создание образа диска
• 3 Настройка BIOS для загрузки с CD-DVD
• 4 Уще раз про BIOS
• 5 Файловые системы
• 6 Работа с разделами
• 7 Размер разделов

MI

Общее
Полное имя : D:\Андрей\оптимизация
Формат : MPEG-4
Профиль формата : Base Media
Идентификатор кодека : isom
Размер файла : 14,3 Мбайт
Режим общего битрейта : Переменный
Общий поток : 741 Кбит/сек
Программа кодирования : Lavf52.93.0
Видео
Идентификатор : 1
Формат : MPEG-4 Visual
Профиль формата : Simple@L1
Параметр BVOP формата : Нет
Параметр QPel формата : Нет
Параметр GMC формата : Без точки перехода
Параметр матрицы формата : Default (H.263)
Идентификатор кодека : 20
Битрейт :456 Кбит/сек
Ширина : 800 пикселей
Высота : 600 пикселей
Соотношение сторон : 4:3
Режим частоты кадров : Постоянный
Частота кадров : 10,000 кадров/сек
Цветовое пространство : YUV
Субдискретизация насыщенности : 4:2:0
Битовая глубина : 8 бит
Тип развёртки : Прогрессивная
Метод сжатия : С потерями
Бит/(Пиксели*Кадры) : 0.092
Размер потока : 12,7 Мбайт (89%)
Библиотека кодирования : Lavc52.108.0
Аудио
Идентификатор : 2
Формат : AAC
Формат/Информация : Advanced Audio Codec
Профиль формата : LC
Идентификатор кодека : 40
Продолжительность : 2 м. 41 с.
Вид битрейта : Переменный
Битрейт : 78 Кбит/сек
Каналы : 2 канала
Расположение каналов : Front: L R
Частота : 44,1 КГц
Метод сжатия : С потерями
Размер потока : 1,49 Мбайт (10%)
Скачать .torrent

Для того, чтобы скачать торрент-файл

Денис Семеновых - Оптимизация компьютера по методу Трикстера (2013)

с нашего сайта, Вам необходимо Войти на сайт под своим логином! Если у Вас ещё нет логина, тогда Вам нужно сначала Зарегистрироваться!

Как скачивать? · Что такое торрент? · Рейтинг и ограничения

Показать сообщения:    
Ответить на тему

Денис Семеновых - Оптимизация компьютера по методу Трикстера (2013) скачать торрент (torrent), видеоуроки, тренинги, обучающее видео и видеокурсы

Текущее время: Сегодня 00:56

Часовой пояс: GMT + 4



Вы не можете начинать темы
Вы не можете отвечать на сообщения
Вы не можете редактировать свои сообщения
Вы не можете удалять свои сообщения
Вы не можете голосовать в опросах
Вы не можете прикреплять файлы к сообщениям
Вы не можете скачивать файлы