Алексей Савельев - Adobe Creative Suite - приемы эффективной работы с видео (2013)

Ответить на тему
 
Автор Сообщение

Yulya ®

-Алексей Савельев - Adobe Creative Suite - приемы эффективной работы с видео (2013) - Автор (режиссер): Алексей Савельев
сайт производителя: https://sites.google.com/site/alloalexey
Название: Adobe Creative Suite - приемы эффективной работы с видео
Год выпуска: 2013
Жанр: видеоуроки
Язык: русский
Продолжительность: 02:12:24
Качество видео: PCRec
Видеокодек: MPEG 4 Video (H264)
Битрейт видео: ~2869 kbps
Размер кадра: 720x480 - 1280x720
Аудиокодек: AAC
Битрейт аудио: 509kbps
Описание:
Описание приемов работы в программах пакета Creative Suite применительно к работе с видео от практикующего монтажера.
Постепенное изучение эффективных методик, предложенных евангелистами от ADOBE и отдельными энтузиастами (Andrew Cramer и др.). Рассматривается совместная работа Premiere, After Effects, Audition и др. через динамические связи.

Дополнительная информация:

Раздача ведеется путем добавления новых уроков.
Доп. материалы к урокам - на сайте производителя:
https://sites.google.com/site/alloalexey

Отчет MediaIfo

Общее
Полное имя : D:\my_lessons_NNM\ready lessons - part one\02_Import_files_montage_by_mouse.mp4
Формат : MPEG-4
Идентификатор кодека : M4V
Размер файла : 290 Мбайт
Продолжительность : 15 м.
Режим общего битрейта : Переменный
Общий поток : 2578 Кбит/сек
Дата кодирования : UTC 2013-08-27 18:52:26
Дата пометки : UTC 2013-08-27 18:52:34
©TIM : 00;00;00;00
©TSC : 30000
©TSZ : 1001
Видео
Идентификатор : 1
Формат : AVC
Формат/Информация : Advanced Video Codec
Профиль формата : [url=mailto:Baseline@L3.1]Baseline@L3.1[/url]
Параметр CABAC формата : Нет
Параметр ReFrames формата : 2 кадра
Параметр GOP формата : M=1, N=90
Идентификатор кодека : avc1
Идентификатор кодека/Информация : Advanced Video Coding
Продолжительность : 15 м.
Продолжительность оригинала : 15 м.
Вид битрейта : Постоянный
Битрейт : 2450 Кбит/сек
Номинальный битрейт : 4000 Кбит/сек
Ширина : 720 пикселей
Высота : 480 пикселей
Соотношение сторон : 3:2
Режим частоты кадров : Переменный
Частота кадров : 29,970 кадров/сек
Минимальная частота кадров : 29,970 кадров/сек
Максимальная частота кадров : 30,000 кадров/сек
Стандарт вещания : NTSC
Цветовое пространство : YUV
Субдискретизация насыщенности : 4:2:0
Битовая глубина : 8 бит
Тип развёртки : Прогрессивная
Бит/(Пиксели*Кадры) : 0.237
Размер потока : 276 Мбайт (95%)
Размер потока оригинала : 276 Мбайт (95%)
Язык : English
Дата кодирования : UTC 2013-08-27 18:52:26
Дата пометки : UTC 2013-08-27 18:52:26
mdhd_Duration : 944610
Аудио
Идентификатор : 2
Формат : AAC
Формат/Информация : Advanced Audio Codec
Профиль формата : LC
Идентификатор кодека : 40
Продолжительность : 15 м.
Продолжительность оригинала : 15 м.
Вид битрейта : Переменный
Битрейт : 126 Кбит/сек
Максимальный битрейт : 200 Кбит/сек
Каналы : 2 канала
Расположение каналов : Front: L R
Частота : 44,1 КГц
Метод сжатия : С потерями
Размер потока : 14,1 Мбайт (5%)
Размер потока оригинала : 14,1 Мбайт (5%)
Язык : English
Дата кодирования : UTC 2013-08-27 18:52:26
Дата пометки : UTC 2013-08-27 18:52:26
mdhd_Duration : 944681
Общее
Полное имя : D:\my_lessons_NNM\ready lessons - part one\01_Intro.mp4
Формат : MPEG-4
Профиль формата : Base Media / Version 2
Идентификатор кодека : mp42
Размер файла : 101 Мбайт
Продолжительность : 7 м. 40 с.
Режим общего битрейта : Переменный
Общий поток : 1832 Кбит/сек
Название фильма : ADOBE CS Intro
Исполнитель : Алексей Савельев
Дата кодирования : UTC 2013-08-31 17:45:26
Дата пометки : UTC 2013-08-31 17:45:26
Видео
Идентификатор : 1
Формат : AVC
Формат/Информация : Advanced Video Codec
Профиль формата : [url=mailto:Baseline@L3.1]Baseline@L3.1[/url]
Параметр CABAC формата : Нет
Параметр ReFrames формата : 3 кадра
Параметр GOP формата : M=1, N=125
Идентификатор кодека : avc1
Идентификатор кодека/Информация : Advanced Video Coding
Продолжительность : 7 м. 40 с.
Вид битрейта : Переменный
Битрейт : 1320 Кбит/сек
Ширина : 1280 пикселей
Высота : 720 пикселей
Соотношение сторон : 16:9
Режим частоты кадров : Постоянный
Частота кадров : 25,000 кадров/сек
Стандарт вещания : PAL
Цветовое пространство : YUV
Субдискретизация насыщенности : 4:2:0
Битовая глубина : 8 бит
Тип развёртки : Прогрессивная
Бит/(Пиксели*Кадры) : 0.057
Размер потока : 72,4 Мбайт (72%)
Язык : English
Дата кодирования : UTC 2013-08-31 17:45:26
Дата пометки : UTC 2013-08-31 17:45:26
Аудио
Идентификатор : 2
Формат : AAC
Формат/Информация : Advanced Audio Codec
Профиль формата : LC
Идентификатор кодека : 40
Продолжительность : 7 м. 40 с.
Продолжительность оригинала : 7 м. 40 с.
Вид битрейта : Переменный
Битрейт : 510 Кбит/сек
Максимальный битрейт : 526 Кбит/сек
Каналы : 2 канала
Расположение каналов : Front: L R
Частота : 44,1 КГц
Метод сжатия : С потерями
Размер потока : 28,0 Мбайт (28%)
Размер потока оригинала : 28,0 Мбайт (28%)
Язык : English
Дата кодирования : UTC 2013-08-31 17:45:26
Дата пометки : UTC 2013-08-31 17:45:26
mdhd_Duration : 460312
Скриншоты:
Скачать .torrent

Для того, чтобы скачать торрент-файл

Алексей Савельев - Adobe Creative Suite - приемы эффективной работы с видео (2013)

с нашего сайта, Вам необходимо Войти на сайт под своим логином! Если у Вас ещё нет логина, тогда Вам нужно сначала Зарегистрироваться!

Как скачивать? · Что такое торрент? · Рейтинг и ограничения

Показать сообщения:    
Ответить на тему

Алексей Савельев - Adobe Creative Suite - приемы эффективной работы с видео (2013) скачать торрент (torrent), видеоуроки, тренинги, обучающее видео и видеокурсы

Текущее время: Сегодня 15:43

Часовой пояс: GMT + 4



Вы не можете начинать темы
Вы не можете отвечать на сообщения
Вы не можете редактировать свои сообщения
Вы не можете удалять свои сообщения
Вы не можете голосовать в опросах
Вы не можете прикреплять файлы к сообщениям
Вы не можете скачивать файлы